  0
SECTION
  2
HEADER
  9
$ACADVER
  1
AC1024
  9
$ACADMAINTVER
 70
   226
  9
$DWGCODEPAGE
  3
ANSI_1252
  9
$LASTSAVEDBY
  1
ASM1
  9
$INSBASE
 10
0.0
 20
0.0
 30
0.0
  9
$EXTMIN
 10
0.0
 20
5.0
 30
0.0
  9
$EXTMAX
 10
594.0
 20
425.0
 30
0.0
  9
$LIMMIN
 10
0.0
 20
0.0
  9
$LIMMAX
 10
420.0
 20
297.0
  9
$ORTHOMODE
 70
     0
  9
$REGENMODE
 70
     1
  9
$FILLMODE
 70
     1
  9
$QTEXTMODE
 70
     0
  9
$MIRRTEXT
 70
     1
  9
$LTSCALE
 40
1.0
  9
$ATTMODE
 70
     1
  9
$TEXTSIZE
 40
2.5
  9
$TRACEWID
 40
1.0
  9
$TEXTSTYLE
  7
STANDARD
  9
$CLAYER
  8
0
  9
$CELTYPE
  6
BYLAYER
  9
$CECOLOR
 62
   256
  9
$CELTSCALE
 40
1.0
  9
$DISPSILH
 70
     0
  9
$DIMSCALE
 40
1.0
  9
$DIMASZ
 40
2.5
  9
$DIMEXO
 40
0.625
  9
$DIMDLI
 40
3.75
  9
$DIMRND
 40
0.0
  9
$DIMDLE
 40
0.0
  9
$DIMEXE
 40
1.25
  9
$DIMTP
 40
0.0
  9
$DIMTM
 40
0.0
  9
$DIMTXT
 40
2.5
  9
$DIMCEN
 40
2.5
  9
$DIMTSZ
 40
0.0
  9
$DIMTOL
 70
     0
  9
$DIMLIM
 70
     0
  9
$DIMTIH
 70
     0
  9
$DIMTOH
 70
     0
  9
$DIMSE1
 70
     0
  9
$DIMSE2
 70
     0
  9
$DIMTAD
 70
     1
  9
$DIMZIN
 70
     8
  9
$DIMBLK
  1

  9
$DIMASO
 70
     1
  9
$DIMSHO
 70
     1
  9
$DIMPOST
  1

  9
$DIMAPOST
  1

  9
$DIMALT
 70
     0
  9
$DIMALTD
 70
     3
  9
$DIMALTF
 40
0.03937
  9
$DIMLFAC
 40
1.0
  9
$DIMTOFL
 70
     1
  9
$DIMTVP
 40
0.0
  9
$DIMTIX
 70
     0
  9
$DIMSOXD
 70
     0
  9
$DIMSAH
 70
     0
  9
$DIMBLK1
  1

  9
$DIMBLK2
  1

  9
$DIMSTYLE
  2
ISO-25
  9
$DIMCLRD
 70
     0
  9
$DIMCLRE
 70
     0
  9
$DIMCLRT
 70
     0
  9
$DIMTFAC
 40
1.0
  9
$DIMGAP
 40
0.625
  9
$DIMJUST
 70
     0
  9
$DIMSD1
 70
     0
  9
$DIMSD2
 70
     0
  9
$DIMTOLJ
 70
     0
  9
$DIMTZIN
 70
     8
  9
$DIMALTZ
 70
     0
  9
$DIMALTTZ
 70
     0
  9
$DIMUPT
 70
     0
  9
$DIMDEC
 70
     2
  9
$DIMTDEC
 70
     2
  9
$DIMALTU
 70
     2
  9
$DIMALTTD
 70
     3
  9
$DIMTXSTY
  7
STANDARD
  9
$DIMAUNIT
 70
     0
  9
$DIMADEC
 70
     0
  9
$DIMALTRND
 40
0.0
  9
$DIMAZIN
 70
     0
  9
$DIMDSEP
 70
    46
  9
$DIMATFIT
 70
     3
  9
$DIMFRAC
 70
     0
  9
$DIMLDRBLK
  1

  9
$DIMLUNIT
 70
     2
  9
$DIMLWD
 70
    -2
  9
$DIMLWE
 70
    -2
  9
$DIMTMOVE
 70
     0
  9
$DIMFXL
 40
1.0
  9
$DIMFXLON
 70
     0
  9
$DIMJOGANG
 40
0.7853981633974483
  9
$DIMTFILL
 70
     0
  9
$DIMTFILLCLR
 70
     0
  9
$DIMARCSYM
 70
     0
  9
$DIMLTYPE
  6

  9
$DIMLTEX1
  6

  9
$DIMLTEX2
  6

  9
$DIMTXTDIRECTION
 70
     0
  9
$LUNITS
 70
     2
  9
$LUPREC
 70
     4
  9
$SKETCHINC
 40
1.0
  9
$FILLETRAD
 40
10.0
  9
$AUNITS
 70
     0
  9
$AUPREC
 70
     0
  9
$MENU
  1
.
  9
$ELEVATION
 40
0.0
  9
$PELEVATION
 40
0.0
  9
$THICKNESS
 40
0.0
  9
$LIMCHECK
 70
     0
  9
$CHAMFERA
 40
0.0
  9
$CHAMFERB
 40
0.0
  9
$CHAMFERC
 40
0.0
  9
$CHAMFERD
 40
0.0
  9
$SKPOLY
 70
     0
  9
$TDCREATE
 40
2458991.438750000
  9
$TDUCREATE
 40
2458991.355416667
  9
$TDUPDATE
 40
2458995.423356481
  9
$TDUUPDATE
 40
2458995.340023149
  9
$TDINDWG
 40
0.0081018634
  9
$TDUSRTIMER
 40
0.0081018634
  9
$USRTIMER
 70
     1
  9
$ANGBASE
 50
0.0
  9
$ANGDIR
 70
     0
  9
$PDMODE
 70
     0
  9
$PDSIZE
 40
0.0
  9
$PLINEWID
 40
0.0
  9
$SPLFRAME
 70
     0
  9
$SPLINETYPE
 70
     6
  9
$SPLINESEGS
 70
     8
  9
$HANDSEED
  5
5A8
  9
$SURFTAB1
 70
     6
  9
$SURFTAB2
 70
     6
  9
$SURFTYPE
 70
     6
  9
$SURFU
 70
     6
  9
$SURFV
 70
     6
  9
$UCSBASE
  2

  9
$UCSNAME
  2

  9
$UCSORG
 10
0.0
 20
0.0
 30
0.0
  9
$UCSXDIR
 10
1.0
 20
0.0
 30
0.0
  9
$UCSYDIR
 10
0.0
 20
1.0
 30
0.0
  9
$UCSORTHOREF
  2

  9
$UCSORTHOVIEW
 70
     0
  9
$UCSORGTOP
 10
0.0
 20
0.0
 30
0.0
  9
$UCSORGBOTTOM
 10
0.0
 20
0.0
 30
0.0
  9
$UCSORGLEFT
 10
0.0
 20
0.0
 30
0.0
  9
$UCSORGRIGHT
 10
0.0
 20
0.0
 30
0.0
  9
$UCSORGFRONT
 10
0.0
 20
0.0
 30
0.0
  9
$UCSORGBACK
 10
0.0
 20
0.0
 30
0.0
  9
$PUCSBASE
  2

  9
$PUCSNAME
  2

  9
$PUCSORG
 10
0.0
 20
0.0
 30
0.0
  9
$PUCSXDIR
 10
1.0
 20
0.0
 30
0.0
  9
$PUCSYDIR
 10
0.0
 20
1.0
 30
0.0
  9
$PUCSORTHOREF
  2

  9
$PUCSORTHOVIEW
 70
     0
  9
$PUCSORGTOP
 10
0.0
 20
0.0
 30
0.0
  9
$PUCSORGBOTTOM
 10
0.0
 20
0.0
 30
0.0
  9
$PUCSORGLEFT
 10
0.0
 20
0.0
 30
0.0
  9
$PUCSORGRIGHT
 10
0.0
 20
0.0
 30
0.0
  9
$PUCSORGFRONT
 10
0.0
 20
0.0
 30
0.0
  9
$PUCSORGBACK
 10
0.0
 20
0.0
 30
0.0
  9
$USERI1
 70
     0
  9
$USERI2
 70
     0
  9
$USERI3
 70
     0
  9
$USERI4
 70
     0
  9
$USERI5
 70
     0
  9
$USERR1
 40
0.0
  9
$USERR2
 40
0.0
  9
$USERR3
 40
0.0
  9
$USERR4
 40
0.0
  9
$USERR5
 40
0.0
  9
$WORLDVIEW
 70
     1
  9
$SHADEDGE
 70
     3
  9
$SHADEDIF
 70
    70
  9
$TILEMODE
 70
     1
  9
$MAXACTVP
 70
    64
  9
$PINSBASE
 10
0.0
 20
0.0
 30
0.0
  9
$PLIMCHECK
 70
     0
  9
$PEXTMIN
 10
1.000000000000000E+20
 20
1.000000000000000E+20
 30
1.000000000000000E+20
  9
$PEXTMAX
 10
-1.000000000000000E+20
 20
-1.000000000000000E+20
 30
-1.000000000000000E+20
  9
$PLIMMIN
 10
0.0
 20
0.0
  9
$PLIMMAX
 10
420.0
 20
297.0
  9
$UNITMODE
 70
     0
  9
$VISRETAIN
 70
     1
  9
$PLINEGEN
 70
     0
  9
$PSLTSCALE
 70
     1
  9
$TREEDEPTH
 70
  3020
  9
$CMLSTYLE
  2
STANDARD
  9
$CMLJUST
 70
     0
  9
$CMLSCALE
 40
20.0
  9
$PROXYGRAPHICS
 70
     1
  9
$MEASUREMENT
 70
     1
  9
$CELWEIGHT
370
    -1
  9
$ENDCAPS
280
     0
  9
$JOINSTYLE
280
     0
  9
$LWDISPLAY
290
     0
  9
$INSUNITS
 70
     4
  9
$HYPERLINKBASE
  1

  9
$STYLESHEET
  1

  9
$XEDIT
290
     1
  9
$CEPSNTYPE
380
     0
  9
$PSTYLEMODE
290
     1
  9
$FINGERPRINTGUID
  2
{B736BB9C-7E29-4FCC-B6BD-22A006C98616}
  9
$VERSIONGUID
  2
{EF4E0A46-CC42-8840-9CE8-A7F770427E0D}
  9
$EXTNAMES
290
     1
  9
$PSVPSCALE
 40
0.0
  9
$OLESTARTUP
290
     0
  9
$SORTENTS
280
   127
  9
$INDEXCTL
280
     0
  9
$HIDETEXT
280
     1
  9
$XCLIPFRAME
280
     2
  9
$HALOGAP
280
     0
  9
$OBSCOLOR
 70
   257
  9
$OBSLTYPE
280
     0
  9
$INTERSECTIONDISPLAY
280
     0
  9
$INTERSECTIONCOLOR
 70
   257
  9
$DIMASSOC
280
     2
  9
$PROJECTNAME
  1

  9
$CAMERADISPLAY
290
     0
  9
$LENSLENGTH
 40
50.0
  9
$CAMERAHEIGHT
 40
0.0
  9
$STEPSPERSEC
 40
2.0
  9
$STEPSIZE
 40
6.0
  9
$3DDWFPREC
 40
2.0
  9
$PSOLWIDTH
 40
5.0
  9
$PSOLHEIGHT
 40
80.0
  9
$LOFTANG1
 40
1.570796326794896
  9
$LOFTANG2
 40
1.570796326794896
  9
$LOFTMAG1
 40
0.0
  9
$LOFTMAG2
 40
0.0
  9
$LOFTPARAM
 70
     7
  9
$LOFTNORMALS
280
     1
  9
$LATITUDE
 40
37.795
  9
$LONGITUDE
 40
-122.394
  9
$NORTHDIRECTION
 40
0.0
  9
$TIMEZONE
 70
 -8000
  9
$LIGHTGLYPHDISPLAY
280
     1
  9
$TILEMODELIGHTSYNCH
280
     1
  9
$CMATERIAL
347
44
  9
$SOLIDHIST
280
     0
  9
$SHOWHIST
280
     1
  9
$DWFFRAME
280
     2
  9
$DGNFRAME
280
     0
  9
$REALWORLDSCALE
290
     1
  9
$INTERFERECOLOR
 62
     1
  9
$INTERFEREOBJVS
345
33
  9
$INTERFEREVPVS
346
30
  9
$CSHADOW
280
     0
  9
$SHADOWPLANELOCATION
 40
0.0
  0
ENDSEC
  0
SECTION
  2
CLASSES
  0
CLASS
  1
ACDBDICTIONARYWDFLT
  2
AcDbDictionaryWithDefault
  3
ObjectDBX Classes
 90
        0
 91
        1
280
     0
281
     0
  0
CLASS
  1
VISUALSTYLE
  2
AcDbVisualStyle
  3
ObjectDBX Classes
 90
     4095
 91
       26
280
     0
281
     0
  0
CLASS
  1
MATERIAL
  2
AcDbMaterial
  3
ObjectDBX Classes
 90
     1153
 91
        3
280
     0
281
     0
  0
CLASS
  1
SCALE
  2
AcDbScale
  3
ObjectDBX Classes
 90
     1153
 91
       33
280
     0
281
     0
  0
CLASS
  1
TABLESTYLE
  2
AcDbTableStyle
  3
ObjectDBX Classes
 90
     4095
 91
        1
280
     0
281
     0
  0
CLASS
  1
MLEADERSTYLE
  2
AcDbMLeaderStyle
  3
ACDB_MLEADERSTYLE_CLASS
 90
     4095
 91
        1
280
     0
281
     0
  0
CLASS
  1
SUN
  2
AcDbSun
  3
SCENEOE
 90
     1153
 91
        0
280
     0
281
     0
  0
CLASS
  1
DICTIONARYVAR
  2
AcDbDictionaryVar
  3
ObjectDBX Classes
 90
        0
 91
       16
280
     0
281
     0
  0
CLASS
  1
ACDBSECTIONVIEWSTYLE
  2
AcDbSectionViewStyle
  3
ObjectDBX Classes
 90
     1025
 91
        1
280
     0
281
     0
  0
CLASS
  1
ACDBDETAILVIEWSTYLE
  2
AcDbDetailViewStyle
  3
ObjectDBX Classes
 90
     1025
 91
        1
280
     0
281
     0
  0
CLASS
  1
CELLSTYLEMAP
  2
AcDbCellStyleMap
  3
ObjectDBX Classes
 90
     1152
 91
        2
280
     0
281
     0
  0
ENDSEC
  0
SECTION
  2
TABLES
  0
TABLE
  2
VPORT
  5
8
102
{ACAD_XDICTIONARY
360
51F
102
}
330
0
100
AcDbSymbolTable
 70
     1
  0
VPORT
  5
29
330
8
100
AcDbSymbolTableRecord
100
AcDbViewportTableRecord
  2
*ACTIVE
 70
     0
 10
0.0
 20
0.0
 11
1.0
 21
1.0
 12
435.7985630356124
 22
183.4104206951637
 13
0.0
 23
0.0
 14
10.0
 24
10.0
 15
10.0
 25
10.0
 16
0.0
 26
0.0
 36
1.0
 17
0.0
 27
0.0
 37
0.0
 40
177.3986294783907
 41
2.33434650455927
 42
50.0
 43
0.0
 44
0.0
 50
0.0
 51
0.0
 71
     0
 72
   100
 73
     1
 74
     3
 75
     0
 76
     0
 77
     0
 78
     0
281
     0
 65
     1
110
0.0
120
0.0
130
0.0
111
1.0
121
0.0
131
0.0
112
0.0
122
1.0
132
0.0
 79
     0
146
0.0
348
2F
 60
     3
 61
     5
292
     1
282
     1
141
0.0
142
0.0
 63
   250
421
  3355443
1001
ACAD_NAV_VCDISPLAY
1070
     3
  0
ENDTAB
  0
TABLE
  2
LTYPE
  5
5
330
0
100
AcDbSymbolTable
 70
     5
  0
LTYPE
  5
14
330
5
100
AcDbSymbolTableRecord
100
AcDbLinetypeTableRecord
  2
BYBLOCK
 70
     0
  3

 72
    65
 73
     0
 40
0.0
  0
LTYPE
  5
15
330
5
100
AcDbSymbolTableRecord
100
AcDbLinetypeTableRecord
  2
BYLAYER
 70
     0
  3

 72
    65
 73
     0
 40
0.0
  0
LTYPE
  5
16
330
5
100
AcDbSymbolTableRecord
100
AcDbLinetypeTableRecord
  2
CONTINUOUS
 70
     0
  3
Solid line
 72
    65
 73
     0
 40
0.0
  0
LTYPE
  5
6E
330
5
100
AcDbSymbolTableRecord
100
AcDbLinetypeTableRecord
  2
CENTER2
 70
     0
  3
Center (.5x) ___ _ ___ _ ___ _ ___ _ ___ _ ___
 72
    65
 73
     4
 40
28.575
 49
19.05
 74
     0
 49
-3.174999999999999
 74
     0
 49
3.174999999999999
 74
     0
 49
-3.174999999999999
 74
     0
  0
LTYPE
  5
82
330
5
100
AcDbSymbolTableRecord
100
AcDbLinetypeTableRecord
  2
HIDDEN2
 70
     0
  3
Hidden (.5x) _ _ _ _ _ _ _ _ _ _ _ _ _ _ _ _ _ 
 72
    65
 73
     2
 40
4.7625
 49
3.174999999999999
 74
     0
 49
-1.587499999999999
 74
     0
  0
LTYPE
  5
92
330
5
100
AcDbSymbolTableRecord
100
AcDbLinetypeTableRecord
  2
DASHDOT
 70
     0
  3
Dash dot __ . __ . __ . __ . __ . __ . __ . __
 72
    65
 73
     4
 40
25.4
 49
12.7
 74
     0
 49
-6.349999999999999
 74
     0
 49
0.0
 74
     0
 49
-6.349999999999999
 74
     0
  0
LTYPE
  5
1B0
330
5
100
AcDbSymbolTableRecord
100
AcDbLinetypeTableRecord
  2
HIDDEN
 70
     0
  3
Hidden __ __ __ __ __ __ __ __ __ __ __ __ __ __
 72
    65
 73
     2
 40
9.525
 49
6.349999999999999
 74
     0
 49
-3.174999999999999
 74
     0
  0
ENDTAB
  0
TABLE
  2
LAYER
  5
2
102
{ACAD_XDICTIONARY
360
419
102
}
330
0
100
AcDbSymbolTable
 70
     8
  0
LAYER
  5
10
102
{ACAD_XDICTIONARY
360
3C6
102
}
330
2
100
AcDbSymbolTableRecord
100
AcDbLayerTableRecord
  2
0
 70
     0
 62
     7
  6
CONTINUOUS
370
    -3
390
3B6
347
46
  0
LAYER
  5
6F
102
{ACAD_XDICTIONARY
360
3C8
102
}
330
2
100
AcDbSymbolTableRecord
100
AcDbLayerTableRecord
  2
1
 70
     0
 62
    70
  6
CENTER2
370
    -3
390
3B6
347
46
  0
LAYER
  5
70
102
{ACAD_XDICTIONARY
360
3CA
102
}
330
2
100
AcDbSymbolTableRecord
100
AcDbLayerTableRecord
  2
2
 70
     0
 62
    70
  6
CONTINUOUS
370
    -3
390
3B6
347
46
  0
LAYER
  5
71
102
{ACAD_XDICTIONARY
360
3CC
102
}
330
2
100
AcDbSymbolTableRecord
100
AcDbLayerTableRecord
  2
LIVELLO_1
 70
     0
 62
   134
  6
CONTINUOUS
370
    -3
390
3B6
347
46
  0
LAYER
  5
72
102
{ACAD_XDICTIONARY
360
3CE
102
}
330
2
100
AcDbSymbolTableRecord
100
AcDbLayerTableRecord
  2
CAMPITURA
 70
     0
 62
   120
  6
CONTINUOUS
370
    -3
390
3B6
347
46
  0
LAYER
  5
73
102
{ACAD_XDICTIONARY
360
3D0
102
}
330
2
100
AcDbSymbolTableRecord
100
AcDbLayerTableRecord
  2
1023
 70
     0
 62
    70
  6
CONTINUOUS
370
    -3
390
3B6
347
46
  0
LAYER
  5
FB
330
2
100
AcDbSymbolTableRecord
100
AcDbLayerTableRecord
  2
DEFPOINTS
 70
     0
 62
     7
  6
CONTINUOUS
290
     0
370
    -3
390
3B6
347
46
  0
LAYER
  5
418
330
2
100
AcDbSymbolTableRecord
100
AcDbLayerTableRecord
  2
Ebene 1
 70
     0
 62
     7
  6
CONTINUOUS
370
    -3
390
3B6
347
46
  0
ENDTAB
  0
TABLE
  2
STYLE
  5
3
330
0
100
AcDbSymbolTable
 70
     5
  0
STYLE
  5
11
330
3
100
AcDbSymbolTableRecord
100
AcDbTextStyleTableRecord
  2
STANDARD
 70
     0
 40
0.0
 41
1.0
 50
0.0
 71
     0
 42
2.5
  3
txt.shx
  4

  0
STYLE
  5
74
330
3
100
AcDbSymbolTableRecord
100
AcDbTextStyleTableRecord
  2
DEFAULT
 70
     0
 40
0.0
 41
1.0
 50
0.0
 71
     0
 42
2.5
  3
txt.shx
  4

  0
STYLE
  5
75
330
3
100
AcDbSymbolTableRecord
100
AcDbTextStyleTableRecord
  2
ISO
 70
     0
 40
0.0
 41
1.0
 50
0.0
 71
     0
 42
2.5
  3
txt.shx
  4

  0
STYLE
  5
76
330
3
100
AcDbSymbolTableRecord
100
AcDbTextStyleTableRecord
  2
ANSI
 70
     0
 40
0.0
 41
1.0
 50
0.0
 71
     0
 42
2.5
  3
txt_____.ttf
  4

1001
ACAD
1000
txt
1071
        0
  0
STYLE
  5
77
330
3
100
AcDbSymbolTableRecord
100
AcDbTextStyleTableRecord
  2
PRECISO
 70
     0
 40
0.0
 41
1.0
 50
0.0
 71
     0
 42
2.5
  3
txt.shx
  4

  0
ENDTAB
  0
TABLE
  2
VIEW
  5
6
330
0
100
AcDbSymbolTable
 70
     0
  0
ENDTAB
  0
TABLE
  2
UCS
  5
7
330
0
100
AcDbSymbolTable
 70
     0
  0
ENDTAB
  0
TABLE
  2
APPID
  5
9
330
0
100
AcDbSymbolTable
 70
     5
  0
APPID
  5
12
330
9
100
AcDbSymbolTableRecord
100
AcDbRegAppTableRecord
  2
ACAD
 70
     0
  0
APPID
  5
3B1
330
9
100
AcDbSymbolTableRecord
100
AcDbRegAppTableRecord
  2
ACAD_MLEADERVER
 70
     0
  0
APPID
  5
3D2
330
9
100
AcDbSymbolTableRecord
100
AcDbRegAppTableRecord
  2
ACAD_NAV_VCDISPLAY
 70
     0
  0
APPID
  5
46B
330
9
100
AcDbSymbolTableRecord
100
AcDbRegAppTableRecord
  2
ACAD_EXEMPT_FROM_CAD_STANDARDS
 70
     0
  0
APPID
  5
4B6
330
9
100
AcDbSymbolTableRecord
100
AcDbRegAppTableRecord
  2
AcadAnnoPO
 70
     0
  0
ENDTAB
  0
TABLE
  2
DIMSTYLE
  5
A
330
0
100
AcDbSymbolTable
 70
     4
100
AcDbDimStyleTable
 71
     0
  0
DIMSTYLE
105
27
102
{ACAD_REACTORS
330
FC
330
109
330
117
330
127
330
137
330
144
330
154
330
161
330
171
330
181
330
19A
330
261
330
275
330
285
330
295
330
2A2
330
2AF
330
2BC
330
2CC
330
2D9
330
2E6
330
2F3
330
329
330
336
330
343
330
350
330
365
330
371
102
}
330
A
100
AcDbSymbolTableRecord
100
AcDbDimStyleTableRecord
  2
ISO-25
 70
     0
  3
<>
 41
2.5
 42
0.75
 43
3.75
 44
1.25
 73
     0
 74
     0
 77
     1
 78
     8
140
2.5
141
2.5
143
0.03937
146
0.6
147
1.25
171
     3
172
     1
176
    70
177
    70
178
    70
271
     2
272
     2
274
     3
283
     0
284
     8
340
11
341
79
342
79
  0
DIMSTYLE
105
78
330
A
100
AcDbSymbolTableRecord
100
AcDbDimStyleTableRecord
  2
DEFAULT
 70
     0
  3
<>
 41
4.375
 42
1.05
 44
2.1
 73
     0
 74
     0
 77
     1
 78
     8
140
3.5
146
0.4
147
1.75
172
     1
178
     1
271
     2
272
     3
284
     8
340
74
341
79
342
79
  0
DIMSTYLE
105
80
330
A
100
AcDbSymbolTableRecord
100
AcDbDimStyleTableRecord
  2
ISO
 70
     0
  3
<>
 41
4.375
 42
1.05
 44
2.1
 73
     0
 74
     0
 77
     1
 78
     8
140
3.5
146
0.4
147
1.75
172
     1
178
     1
271
     2
272
     3
284
     8
340
75
341
79
342
79
  0
DIMSTYLE
105
81
330
A
100
AcDbSymbolTableRecord
100
AcDbDimStyleTableRecord
  2
OTLAV_STILE_MIRKO_QUOTE
 70
     0
  3
<>
 41
3.5
 42
1.05
 44
2.1
 73
     0
 74
     0
 77
     1
 78
     8
140
3.5
146
0.4
147
1.75
172
     1
178
    70
271
     2
272
     3
284
     8
340
74
341
79
342
79
  0
ENDTAB
  0
TABLE
  2
BLOCK_RECORD
  5
1
330
0
100
AcDbSymbolTable
 70
    43
  0
BLOCK_RECORD
  5
1F
330
1
100
AcDbSymbolTableRecord
100
AcDbBlockTableRecord
  2
*MODEL_SPACE
340
3C0
 70
     0
280
     1
281
     0
  0
BLOCK_RECORD
  5
1B
330
1
100
AcDbSymbolTableRecord
100
AcDbBlockTableRecord
  2
*PAPER_SPACE
340
3C1
 70
     0
280
     1
281
     0
  0
BLOCK_RECORD
  5
79
330
1
100
AcDbSymbolTableRecord
100
AcDbBlockTableRecord
  2
_CLOSED
340
0
102
{BLKREFS
331
27F
331
280
331
28F
331
290
331
29C
331
29D
331
2A9
331
2AA
331
2B6
331
2B7
331
2C6
331
2C7
331
2D3
331
2D4
331
2E0
331
2E1
331
2ED
331
2EE
331
2FA
331
2FB
331
470
331
471
331
479
331
47A
331
48B
331
48C
331
49B
331
49C
331
330
331
331
331
33D
331
33E
331
34A
331
34B
331
357
331
358
331
103
331
104
331
110
331
111
331
121
331
122
331
131
331
132
331
13E
331
13F
331
14E
331
14F
331
15B
331
15C
331
16B
331
16C
331
17B
331
17C
331
1A1
331
1A2
102
}
 70
     0
280
     1
281
     0
  0
BLOCK_RECORD
  5
FD
330
1
100
AcDbSymbolTableRecord
100
AcDbBlockTableRecord
  2
*D1
340
0
 70
     0
280
     1
281
     0
  0
BLOCK_RECORD
  5
10A
330
1
100
AcDbSymbolTableRecord
100
AcDbBlockTableRecord
  2
*D2
340
0
 70
     0
280
     1
281
     0
  0
BLOCK_RECORD
  5
118
330
1
100
AcDbSymbolTableRecord
100
AcDbBlockTableRecord
  2
*D3
340
0
 70
     0
280
     1
281
     0
  0
BLOCK_RECORD
  5
128
330
1
100
AcDbSymbolTableRecord
100
AcDbBlockTableRecord
  2
*D4
340
0
 70
     0
280
     1
281
     0
  0
BLOCK_RECORD
  5
138
330
1
100
AcDbSymbolTableRecord
100
AcDbBlockTableRecord
  2
*D5
340
0
 70
     0
280
     1
281
     0
  0
BLOCK_RECORD
  5
145
330
1
100
AcDbSymbolTableRecord
100
AcDbBlockTableRecord
  2
*D6
340
0
 70
     0
280
     1
281
     0
  0
BLOCK_RECORD
  5
155
330
1
100
AcDbSymbolTableRecord
100
AcDbBlockTableRecord
  2
*D7
340
0
 70
     0
280
     1
281
     0
  0
BLOCK_RECORD
  5
162
330
1
100
AcDbSymbolTableRecord
100
AcDbBlockTableRecord
  2
*D8
340
0
 70
     0
280
     1
281
     0
  0
BLOCK_RECORD
  5
172
330
1
100
AcDbSymbolTableRecord
100
AcDbBlockTableRecord
  2
*D9
340
0
 70
     0
280
     1
281
     0
  0
BLOCK_RECORD
  5
182
330
1
100
AcDbSymbolTableRecord
100
AcDbBlockTableRecord
  2
*D10
340
0
 70
     0
280
     1
281
     0
  0
BLOCK_RECORD
  5
18E
330
1
100
AcDbSymbolTableRecord
100
AcDbBlockTableRecord
  2
FORMAT
340
0
102
{BLKREFS
331
199
102
}
 70
     0
280
     1
281
     0
  0
BLOCK_RECORD
  5
19B
330
1
100
AcDbSymbolTableRecord
100
AcDbBlockTableRecord
  2
*D12
340
0
 70
     0
280
     1
281
     0
  0
BLOCK_RECORD
  5
1FE
330
1
100
AcDbSymbolTableRecord
100
AcDbBlockTableRecord
  2
GRI
340
0
102
{BLKREFS
331
462
102
}
 70
     0
280
     1
281
     0
  0
BLOCK_RECORD
  5
219
330
1
100
AcDbSymbolTableRecord
100
AcDbBlockTableRecord
  2
GRUPPO
340
0
 70
     0
280
     1
281
     0
  0
BLOCK_RECORD
  5
21B
330
1
100
AcDbSymbolTableRecord
100
AcDbBlockTableRecord
  2
POLYLINE_1
340
0
102
{BLKREFS
331
226
102
}
 70
     0
280
     1
281
     0
  0
BLOCK_RECORD
  5
227
330
1
100
AcDbSymbolTableRecord
100
AcDbBlockTableRecord
  2
POLYLINE_2
340
0
102
{BLKREFS
331
232
102
}
 70
     0
280
     1
281
     0
  0
BLOCK_RECORD
  5
233
330
1
100
AcDbSymbolTableRecord
100
AcDbBlockTableRecord
  2
GRUPPO1
340
0
102
{BLKREFS
331
24C
102
}
 70
     0
280
     1
281
     0
  0
BLOCK_RECORD
  5
262
330
1
100
AcDbSymbolTableRecord
100
AcDbBlockTableRecord
  2
*D18
340
0
 70
     0
280
     1
281
     0
  0
BLOCK_RECORD
  5
276
330
1
100
AcDbSymbolTableRecord
100
AcDbBlockTableRecord
  2
*D19
340
0
 70
     0
280
     1
281
     0
  0
BLOCK_RECORD
  5
286
330
1
100
AcDbSymbolTableRecord
100
AcDbBlockTableRecord
  2
*D20
340
0
 70
     0
280
     1
281
     0
  0
BLOCK_RECORD
  5
296
330
1
100
AcDbSymbolTableRecord
100
AcDbBlockTableRecord
  2
*D21
340
0
 70
     0
280
     1
281
     0
  0
BLOCK_RECORD
  5
2A3
330
1
100
AcDbSymbolTableRecord
100
AcDbBlockTableRecord
  2
*D22
340
0
 70
     0
280
     1
281
     0
  0
BLOCK_RECORD
  5
2B0
330
1
100
AcDbSymbolTableRecord
100
AcDbBlockTableRecord
  2
*D23
340
0
 70
     0
280
     1
281
     0
  0
BLOCK_RECORD
  5
2BD
330
1
100
AcDbSymbolTableRecord
100
AcDbBlockTableRecord
  2
*D24
340
0
 70
     0
280
     1
281
     0
  0
BLOCK_RECORD
  5
2CD
330
1
100
AcDbSymbolTableRecord
100
AcDbBlockTableRecord
  2
*D25
340
0
 70
     0
280
     1
281
     0
  0
BLOCK_RECORD
  5
2DA
330
1
100
AcDbSymbolTableRecord
100
AcDbBlockTableRecord
  2
*D26
340
0
 70
     0
280
     1
281
     0
  0
BLOCK_RECORD
  5
2E7
330
1
100
AcDbSymbolTableRecord
100
AcDbBlockTableRecord
  2
*D27
340
0
 70
     0
280
     1
281
     0
  0
BLOCK_RECORD
  5
2F4
330
1
100
AcDbSymbolTableRecord
100
AcDbBlockTableRecord
  2
*D28
340
0
 70
     0
280
     1
281
     0
  0
BLOCK_RECORD
  5
32A
330
1
100
AcDbSymbolTableRecord
100
AcDbBlockTableRecord
  2
*D29
340
0
 70
     0
280
     1
281
     0
  0
BLOCK_RECORD
  5
337
330
1
100
AcDbSymbolTableRecord
100
AcDbBlockTableRecord
  2
*D30
340
0
 70
     0
280
     1
281
     0
  0
BLOCK_RECORD
  5
344
330
1
100
AcDbSymbolTableRecord
100
AcDbBlockTableRecord
  2
*D31
340
0
 70
     0
280
     1
281
     0
  0
BLOCK_RECORD
  5
351
330
1
100
AcDbSymbolTableRecord
100
AcDbBlockTableRecord
  2
*D32
340
0
 70
     0
280
     1
281
     0
  0
BLOCK_RECORD
  5
366
330
1
100
AcDbSymbolTableRecord
100
AcDbBlockTableRecord
  2
*D33
340
0
 70
     0
280
     1
281
     0
  0
BLOCK_RECORD
  5
372
330
1
100
AcDbSymbolTableRecord
100
AcDbBlockTableRecord
  2
*D34
340
0
 70
     0
280
     1
281
     0
  0
BLOCK_RECORD
  5
3D8
330
1
100
AcDbSymbolTableRecord
100
AcDbBlockTableRecord
  2
block 2
340
0
102
{BLKREFS
331
464
102
}
 70
     0
280
     1
281
     0
  0
BLOCK_RECORD
  5
3DD
330
1
100
AcDbSymbolTableRecord
100
AcDbBlockTableRecord
  2
block 3
340
0
102
{BLKREFS
331
3DA
102
}
 70
     0
280
     1
281
     0
  0
BLOCK_RECORD
  5
3E1
330
1
100
AcDbSymbolTableRecord
100
AcDbBlockTableRecord
  2
block 4
340
0
102
{BLKREFS
331
3DF
102
}
 70
     0
280
     1
281
     0
  0
BLOCK_RECORD
  5
3E7
330
1
100
AcDbSymbolTableRecord
100
AcDbBlockTableRecord
  2
block 5
340
0
102
{BLKREFS
331
3E3
102
}
 70
     0
280
     1
281
     0
  0
BLOCK_RECORD
  5
3EC
330
1
100
AcDbSymbolTableRecord
100
AcDbBlockTableRecord
  2
block 6
340
0
102
{BLKREFS
331
3E4
102
}
 70
     0
280
     1
281
     0
  0
BLOCK_RECORD
  5
3F1
330
1
100
AcDbSymbolTableRecord
100
AcDbBlockTableRecord
  2
block 7
340
0
102
{BLKREFS
331
3DB
102
}
 70
     0
280
     1
281
     0
  0
BLOCK_RECORD
  5
3F5
330
1
100
AcDbSymbolTableRecord
100
AcDbBlockTableRecord
  2
block 8
340
0
102
{BLKREFS
331
3F3
102
}
 70
     0
280
     1
281
     0
  0
BLOCK_RECORD
  5
3FD
330
1
100
AcDbSymbolTableRecord
100
AcDbBlockTableRecord
  2
block 9
340
0
102
{BLKREFS
331
3F8
102
}
 70
     0
280
     1
281
     0
  0
ENDTAB
  0
ENDSEC
  0
SECTION
  2
BLOCKS
  0
BLOCK
  5
20
330
1F
100
AcDbEntity
  8
0
100
AcDbBlockBegin
  2
*MODEL_SPACE
 70
     0
 10
0.0
 20
0.0
 30
0.0
  3
*MODEL_SPACE
  1

  0
ENDBLK
  5
21
330
1F
100
AcDbEntity
  8
0
100
AcDbBlockEnd
  0
BLOCK
  5
1C
330
1B
100
AcDbEntity
 67
     1
  8
0
100
AcDbBlockBegin
  2
*PAPER_SPACE
 70
     0
 10
0.0
 20
0.0
 30
0.0
  3
*PAPER_SPACE
  1

  0
ENDBLK
  5
1D
330
1B
100
AcDbEntity
 67
     1
  8
0
100
AcDbBlockEnd
  0
BLOCK
  5
7A
330
79
100
AcDbEntity
  8
0
100
AcDbBlockBegin
  2
_CLOSED
 70
     0
 10
0.0
 20
0.0
 30
0.0
  3
_CLOSED
  1
_CLOSED
  0
LINE
  5
7C
330
79
100
AcDbEntity
  8
0
  6
ByBlock
 62
     0
100
AcDbLine
 10
-1.0
 20
0.166667
 30
0.0
 11
0.0
 21
0.0
 31
0.0
  0
LINE
  5
7D
330
79
100
AcDbEntity
  8
0
  6
ByBlock
 62
     0
100
AcDbLine
 10
0.0
 20
0.0
 30
0.0
 11
-1.0
 21
-0.166667
 31
0.0
  0
LINE
  5
7E
330
79
100
AcDbEntity
  8
0
  6
ByBlock
 62
     0
100
AcDbLine
 10
-1.0
 20
0.166667
 30
0.0
 11
-1.0
 21
-0.166667
 31
0.0
  0
LINE
  5
7F
330
79
100
AcDbEntity
  8
0
  6
ByBlock
 62
     0
100
AcDbLine
 10
0.0
 20
0.0
 30
0.0
 11
-1.0
 21
0.0
 31
0.0
  0
ENDBLK
  5
7B
330
79
100
AcDbEntity
  8
0
100
AcDbBlockEnd
  0
BLOCK
  5
FE
330
FD
100
AcDbEntity
  8
0
100
AcDbBlockBegin
  2
*D1
 70
     1
 10
0.0
 20
0.0
 30
0.0
  3
*D1
  1
*D2
  0
LINE
  5
100
330
FD
100
AcDbEntity
  8
0
  6
Continuous
 62
    70
440
 16777216
100
AcDbLine
 10
357.854125
 20
340.75257
 30
0.0
 11
425.0
 21
340.75257
 31
0.0
  0
LINE
  5
101
330
FD
100
AcDbEntity
  8
0
  6
Continuous
 62
    70
440
 16777216
100
AcDbLine
 10
357.854125
 20
150.55257
 30
0.0
 11
425.0
 21
150.55257
 31
0.0
  0
LINE
  5
102
330
FD
100
AcDbEntity
  8
0
  6
Continuous
 62
    70
440
 16777216
100
AcDbLine
 10
423.0
 20
336.75257
 30
0.0
 11
423.0
 21
154.55257
 31
0.0
  0
INSERT
  5
103
330
FD
100
AcDbEntity
  8
0
 62
    70
440
 16777216
100
AcDbBlockReference
  2
_CLOSED
 10
423.0
 20
340.75257
 30
0.0
 41
4.0
 42
4.0
 43
4.0
 50
90.0
  0
INSERT
  5
104
330
FD
100
AcDbEntity
  8
0
 62
    70
440
 16777216
100
AcDbBlockReference
  2
_CLOSED
 10
423.0
 20
150.55257
 30
0.0
 41
4.0
 42
4.0
 43
4.0
 50
270.0
  0
MTEXT
  5
105
330
FD
100
AcDbEntity
  8
0
 62
    70
440
 16777216
100
AcDbMText
 10
418.2
 20
245.652557
 30
0.0
 40
4.0
 41
0.0
 46
0.0
 71
     5
 72
     1
  1
190.2{\H2.400000;\S+0.2^  0;}
 11
0.0
 21
1.0
 31
0.0
 73
     1
 44
1.0
  0
POINT
  5
106
330
FD
100
AcDbEntity
  8
DEFPOINTS
 62
     0
440
 16777216
100
AcDbPoint
 10
356.654125
 20
340.75257
 30
0.0
  0
POINT
  5
107
330
FD
100
AcDbEntity
  8
DEFPOINTS
 62
     0
440
 16777216
100
AcDbPoint
 10
356.654125
 20
150.55257
 30
0.0
  0
POINT
  5
108
330
FD
100
AcDbEntity
  8
DEFPOINTS
 62
     0
440
 16777216
100
AcDbPoint
 10
423.0
 20
150.55257
 30
0.0
  0
ENDBLK
  5
FF
330
FD
100
AcDbEntity
  8
0
100
AcDbBlockEnd
  0
BLOCK
  5
10B
330
10A
100
AcDbEntity
  8
0
100
AcDbBlockBegin
  2
*D2
 70
     1
 10
0.0
 20
0.0
 30
0.0
  3
*D2
  1
*D3
  0
LINE
  5
10D
330
10A
100
AcDbEntity
  8
0
  6
Continuous
 62
    70
440
 16777216
100
AcDbLine
 10
357.854125
 20
325.75257
 30
0.0
 11
405.0000309999999
 21
325.75257
 31
0.0
  0
LINE
  5
10E
330
10A
100
AcDbEntity
  8
0
  6
Continuous
 62
    70
440
 16777216
100
AcDbLine
 10
357.854125
 20
165.55257
 30
0.0
 11
405.0000309999999
 21
165.55257
 31
0.0
  0
LINE
  5
10F
330
10A
100
AcDbEntity
  8
0
  6
Continuous
 62
    70
440
 16777216
100
AcDbLine
 10
403.000031
 20
321.75257
 30
0.0
 11
403.000031
 21
169.55257
 31
0.0
  0
INSERT
  5
110
330
10A
100
AcDbEntity
  8
0
 62
    70
440
 16777216
100
AcDbBlockReference
  2
_CLOSED
 10
403.000031
 20
325.75257
 30
0.0
 41
4.0
 42
4.0
 43
4.0
 50
90.0
  0
INSERT
  5
111
330
10A
100
AcDbEntity
  8
0
 62
    70
440
 16777216
100
AcDbBlockReference
  2
_CLOSED
 10
403.000031
 20
165.55257
 30
0.0
 41
4.0
 42
4.0
 43
4.0
 50
270.0
  0
MTEXT
  5
112
330
10A
100
AcDbEntity
  8
0
 62
    70
440
 16777216
100
AcDbMText
 10
398.200031
 20
245.652557
 30
0.0
 40
4.0
 41
0.0
 46
0.0
 71
     5
 72
     1
  1
160.2{\H2.400000;\S+0.2^  0;}
 11
0.0
 21
1.0
 31
0.0
 73
     1
 44
1.0
  0
POINT
  5
113
330
10A
100
AcDbEntity
  8
DEFPOINTS
 62
     0
440
 16777216
100
AcDbPoint
 10
356.654125
 20
325.75257
 30
0.0
  0
POINT
  5
114
330
10A
100
AcDbEntity
  8
DEFPOINTS
 62
     0
440
 16777216
100
AcDbPoint
 10
356.654125
 20
165.55257
 30
0.0
  0
POINT
  5
115
330
10A
100
AcDbEntity
  8
DEFPOINTS
 62
     0
440
 16777216
100
AcDbPoint
 10
403.000031
 20
165.55257
 30
0.0
  0
ENDBLK
  5
10C
330
10A
100
AcDbEntity
  8
0
100
AcDbBlockEnd
  0
BLOCK
  5
119
330
118
100
AcDbEntity
  8
0
100
AcDbBlockBegin
  2
*D3
 70
     1
 10
0.0
 20
0.0
 30
0.0
  3
*D3
  1
*D4
  0
LINE
  5
11B
330
118
100
AcDbEntity
  8
0
  6
Continuous
 62
    70
440
 16777216
100
AcDbLine
 10
372.254125
 20
323.9525700000001
 30
0.0
 11
372.254125
 21
288.050903
 31
0.0
  0
LINE
  5
11C
330
118
100
AcDbEntity
  8
0
  6
Continuous
 62
    70
440
 16777216
100
AcDbLine
 10
376.254125
 20
351.60257
 30
0.0
 11
376.254125
 21
288.050903
 31
0.0
  0
LINE
  5
11D
330
118
100
AcDbEntity
  8
0
  6
Continuous
 62
    70
440
 16777216
100
AcDbLine
 10
376.254125
 20
290.050903
 30
0.0
 11
390.730315
 21
290.050903
 31
0.0
  0
LINE
  5
11E
330
118
100
AcDbEntity
  8
0
  6
Continuous
 62
    70
440
 16777216
100
AcDbLine
 10
372.254125
 20
290.050903
 30
0.0
 11
376.254125
 21
290.050903
 31
0.0
  0
LINE
  5
11F
330
118
100
AcDbEntity
  8
0
  6
Continuous
 62
    70
440
 16777216
100
AcDbLine
 10
368.254125
 20
290.050903
 30
0.0
 11
364.254125
 21
290.050903
 31
0.0
  0
LINE
  5
120
330
118
100
AcDbEntity
  8
0
  6
Continuous
 62
    70
440
 16777216
100
AcDbLine
 10
380.254125
 20
290.050903
 30
0.0
 11
384.254125
 21
290.050903
 31
0.0
  0
INSERT
  5
121
330
118
100
AcDbEntity
  8
0
 62
    70
440
 16777216
100
AcDbBlockReference
  2
_CLOSED
 10
372.254125
 20
290.050903
 30
0.0
 41
4.0
 42
4.0
 43
4.0
  0
INSERT
  5
122
330
118
100
AcDbEntity
  8
0
 62
    70
440
 16777216
100
AcDbBlockReference
  2
_CLOSED
 10
376.254125
 20
290.050903
 30
0.0
 41
4.0
 42
4.0
 43
4.0
 50
180.0
  0
MTEXT
  5
123
330
118
100
AcDbEntity
  8
0
 62
    70
440
 16777216
100
AcDbMText
 10
387.49222
 20
294.050903
 30
0.0
 40
4.0
 41
0.0
 46
0.0
 71
     5
 72
     1
  1
F
 73
     1
 44
1.0
  0
POINT
  5
124
330
118
100
AcDbEntity
  8
DEFPOINTS
 62
     0
440
 16777216
100
AcDbPoint
 10
372.254125
 20
325.15257
 30
0.0
  0
POINT
  5
125
330
118
100
AcDbEntity
  8
DEFPOINTS
 62
     0
440
 16777216
100
AcDbPoint
 10
376.254125
 20
352.80257
 30
0.0
  0
POINT
  5
126
330
118
100
AcDbEntity
  8
DEFPOINTS
 62
     0
440
 16777216
100
AcDbPoint
 10
376.254125
 20
290.050903
 30
0.0
  0
ENDBLK
  5
11A
330
118
100
AcDbEntity
  8
0
100
AcDbBlockEnd
  0
BLOCK
  5
129
330
128
100
AcDbEntity
  8
0
100
AcDbBlockBegin
  2
*D4
 70
     1
 10
0.0
 20
0.0
 30
0.0
  3
*D4
  1
*D5
  0
LINE
  5
12B
330
128
100
AcDbEntity
  8
0
  6
Continuous
 62
    70
440
 16777216
100
AcDbLine
 10
297.76743
 20
341.95257
 30
0.0
 11
297.76743
 21
372.0
 31
0.0
  0
LINE
  5
12C
330
128
100
AcDbEntity
  8
0
  6
Continuous
 62
    70
440
 16777216
100
AcDbLine
 10
307.76743
 20
354.00257
 30
0.0
 11
307.76743
 21
372.0
 31
0.0
  0
LINE
  5
12D
330
128
100
AcDbEntity
  8
0
  6
Continuous
 62
    70
440
 16777216
100
AcDbLine
 10
307.76743
 20
370.0
 30
0.0
 11
334.586478
 21
370.0
 31
0.0
  0
LINE
  5
12E
330
128
100
AcDbEntity
  8
0
  6
Continuous
 62
    70
440
 16777216
100
AcDbLine
 10
297.76743
 20
370.0
 30
0.0
 11
307.76743
 21
370.0
 31
0.0
  0
LINE
  5
12F
330
128
100
AcDbEntity
  8
0
  6
Continuous
 62
    70
440
 16777216
100
AcDbLine
 10
293.76743
 20
370.0
 30
0.0
 11
289.76743
 21
370.0
 31
0.0
  0
LINE
  5
130
330
128
100
AcDbEntity
  8
0
  6
Continuous
 62
    70
440
 16777216
100
AcDbLine
 10
311.76743
 20
370.0
 30
0.0
 11
315.76743
 21
370.0
 31
0.0
  0
INSERT
  5
131
330
128
100
AcDbEntity
  8
0
 62
    70
440
 16777216
100
AcDbBlockReference
  2
_CLOSED
 10
297.76743
 20
370.0
 30
0.0
 41
4.0
 42
4.0
 43
4.0
  0
INSERT
  5
132
330
128
100
AcDbEntity
  8
0
 62
    70
440
 16777216
100
AcDbBlockReference
  2
_CLOSED
 10
307.76743
 20
370.0
 30
0.0
 41
4.0
 42
4.0
 43
4.0
 50
180.0
  0
MTEXT
  5
133
330
128
100
AcDbEntity
  8
0
 62
    70
440
 16777216
100
AcDbMText
 10
325.176954
 20
374.8
 30
0.0
 40
4.0
 41
0.0
 46
0.0
 71
     5
 72
     1
  1
10{\H2.400000;\S+0.2^  0;}
 73
     1
 44
1.0
  0
POINT
  5
134
330
128
100
AcDbEntity
  8
DEFPOINTS
 62
     0
440
 16777216
100
AcDbPoint
 10
297.76743
 20
340.75257
 30
0.0
  0
POINT
  5
135
330
128
100
AcDbEntity
  8
DEFPOINTS
 62
     0
440
 16777216
100
AcDbPoint
 10
307.76743
 20
352.80257
 30
0.0
  0
POINT
  5
136
330
128
100
AcDbEntity
  8
DEFPOINTS
 62
     0
440
 16777216
100
AcDbPoint
 10
307.76743
 20
370.0
 30
0.0
  0
ENDBLK
  5
12A
330
128
100
AcDbEntity
  8
0
100
AcDbBlockEnd
  0
BLOCK
  5
139
330
138
100
AcDbEntity
  8
0
100
AcDbBlockBegin
  2
*D5
 70
     1
 10
0.0
 20
0.0
 30
0.0
  3
*D5
  1
*D6
  0
LINE
  5
13B
330
138
100
AcDbEntity
  8
0
  6
Continuous
 62
    70
440
 16777216
100
AcDbLine
 10
307.76743
 20
354.00257
 30
0.0
 11
307.76743
 21
392.0
 31
0.0
  0
LINE
  5
13C
330
138
100
AcDbEntity
  8
0
  6
Continuous
 62
    70
440
 16777216
100
AcDbLine
 10
278.26743
 20
326.95257
 30
0.0
 11
278.26743
 21
392.0
 31
0.0
  0
LINE
  5
13D
330
138
100
AcDbEntity
  8
0
  6
Continuous
 62
    70
440
 16777216
100
AcDbLine
 10
303.76743
 20
390.0
 30
0.0
 11
282.26743
 21
390.0
 31
0.0
  0
INSERT
  5
13E
330
138
100
AcDbEntity
  8
0
 62
    70
440
 16777216
100
AcDbBlockReference
  2
_CLOSED
 10
307.76743
 20
390.0
 30
0.0
 41
4.0
 42
4.0
 43
4.0
  0
INSERT
  5
13F
330
138
100
AcDbEntity
  8
0
 62
    70
440
 16777216
100
AcDbBlockReference
  2
_CLOSED
 10
278.26743
 20
390.0
 30
0.0
 41
4.0
 42
4.0
 43
4.0
 50
180.0
  0
MTEXT
  5
140
330
138
100
AcDbEntity
  8
0
 62
    70
440
 16777216
100
AcDbMText
 10
293.017456
 20
394.8
 30
0.0
 40
4.0
 41
0.0
 46
0.0
 71
     5
 72
     1
  1
29.5{\H2.400000;\S+0.5^  0;}
 73
     1
 44
1.0
  0
POINT
  5
141
330
138
100
AcDbEntity
  8
DEFPOINTS
 62
     0
440
 16777216
100
AcDbPoint
 10
307.76743
 20
352.80257
 30
0.0
  0
POINT
  5
142
330
138
100
AcDbEntity
  8
DEFPOINTS
 62
     0
440
 16777216
100
AcDbPoint
 10
278.26743
 20
325.75257
 30
0.0
  0
POINT
  5
143
330
138
100
AcDbEntity
  8
DEFPOINTS
 62
     0
440
 16777216
100
AcDbPoint
 10
278.26743
 20
390.0
 30
0.0
  0
ENDBLK
  5
13A
330
138
100
AcDbEntity
  8
0
100
AcDbBlockEnd
  0
BLOCK
  5
146
330
145
100
AcDbEntity
  8
0
100
AcDbBlockBegin
  2
*D6
 70
     1
 10
0.0
 20
0.0
 30
0.0
  3
*D6
  1
*D7
  0
LINE
  5
148
330
145
100
AcDbEntity
  8
0
  6
Continuous
 62
    70
440
 16777216
100
AcDbLine
 10
107.76743
 20
354.00257
 30
0.0
 11
107.76743
 21
372.0
 31
0.0
  0
LINE
  5
149
330
145
100
AcDbEntity
  8
0
  6
Continuous
 62
    70
440
 16777216
100
AcDbLine
 10
97.76743000000001
 20
341.95257
 30
0.0
 11
97.76743000000001
 21
372.0
 31
0.0
  0
LINE
  5
14A
330
145
100
AcDbEntity
  8
0
  6
Continuous
 62
    70
440
 16777216
100
AcDbLine
 10
97.76743000000001
 20
370.0
 30
0.0
 11
70.94838299999999
 21
370.0
 31
0.0
  0
LINE
  5
14B
330
145
100
AcDbEntity
  8
0
  6
Continuous
 62
    70
440
 16777216
100
AcDbLine
 10
107.76743
 20
370.0
 30
0.0
 11
97.76743000000001
 21
370.0
 31
0.0
  0
LINE
  5
14C
330
145
100
AcDbEntity
  8
0
  6
Continuous
 62
    70
440
 16777216
100
AcDbLine
 10
111.76743
 20
370.0
 30
0.0
 11
115.76743
 21
370.0
 31
0.0
  0
LINE
  5
14D
330
145
100
AcDbEntity
  8
0
  6
Continuous
 62
    70
440
 16777216
100
AcDbLine
 10
93.76743000000001
 20
370.0
 30
0.0
 11
89.76743
 21
370.0
 31
0.0
  0
INSERT
  5
14E
330
145
100
AcDbEntity
  8
0
 62
    70
440
 16777216
100
AcDbBlockReference
  2
_CLOSED
 10
107.76743
 20
370.0
 30
0.0
 41
4.0
 42
4.0
 43
4.0
 50
180.0
  0
INSERT
  5
14F
330
145
100
AcDbEntity
  8
0
 62
    70
440
 16777216
100
AcDbBlockReference
  2
_CLOSED
 10
97.76743000000001
 20
370.0
 30
0.0
 41
4.0
 42
4.0
 43
4.0
  0
MTEXT
  5
150
330
145
100
AcDbEntity
  8
0
 62
    70
440
 16777216
100
AcDbMText
 10
80.35790699999999
 20
374.8
 30
0.0
 40
4.0
 41
0.0
 46
0.0
 71
     5
 72
     1
  1
10{\H2.400000;\S+0.2^  0;}
 73
     1
 44
1.0
  0
POINT
  5
151
330
145
100
AcDbEntity
  8
DEFPOINTS
 62
     0
440
 16777216
100
AcDbPoint
 10
107.76743
 20
352.80257
 30
0.0
  0
POINT
  5
152
330
145
100
AcDbEntity
  8
DEFPOINTS
 62
     0
440
 16777216
100
AcDbPoint
 10
97.76743000000001
 20
340.75257
 30
0.0
  0
POINT
  5
153
330
145
100
AcDbEntity
  8
DEFPOINTS
 62
     0
440
 16777216
100
AcDbPoint
 10
97.76743000000001
 20
370.0
 30
0.0
  0
ENDBLK
  5
147
330
145
100
AcDbEntity
  8
0
100
AcDbBlockEnd
  0
BLOCK
  5
156
330
155
100
AcDbEntity
  8
0
100
AcDbBlockBegin
  2
*D7
 70
     1
 10
0.0
 20
0.0
 30
0.0
  3
*D7
  1
*D8
  0
LINE
  5
158
330
155
100
AcDbEntity
  8
0
  6
Continuous
 62
    70
440
 16777216
100
AcDbLine
 10
107.76743
 20
354.00257
 30
0.0
 11
107.76743
 21
392.0
 31
0.0
  0
LINE
  5
159
330
155
100
AcDbEntity
  8
0
  6
Continuous
 62
    70
440
 16777216
100
AcDbLine
 10
72.26743
 20
326.95257
 30
0.0
 11
72.26743
 21
392.0
 31
0.0
  0
LINE
  5
15A
330
155
100
AcDbEntity
  8
0
  6
Continuous
 62
    70
440
 16777216
100
AcDbLine
 10
103.76743
 20
390.0
 30
0.0
 11
76.26743000000001
 21
390.0
 31
0.0
  0
INSERT
  5
15B
330
155
100
AcDbEntity
  8
0
 62
    70
440
 16777216
100
AcDbBlockReference
  2
_CLOSED
 10
107.76743
 20
390.0
 30
0.0
 41
4.0
 42
4.0
 43
4.0
  0
INSERT
  5
15C
330
155
100
AcDbEntity
  8
0
 62
    70
440
 16777216
100
AcDbBlockReference
  2
_CLOSED
 10
72.26743
 20
390.0
 30
0.0
 41
4.0
 42
4.0
 43
4.0
 50
180.0
  0
MTEXT
  5
15D
330
155
100
AcDbEntity
  8
0
 62
    70
440
 16777216
100
AcDbMText
 10
90.01743299999999
 20
394.8
 30
0.0
 40
4.0
 41
0.0
 46
0.0
 71
     5
 72
     1
  1
35.5{\H2.400000;\S+0.5^  0;}
 73
     1
 44
1.0
  0
POINT
  5
15E
330
155
100
AcDbEntity
  8
DEFPOINTS
 62
     0
440
 16777216
100
AcDbPoint
 10
107.76743
 20
352.80257
 30
0.0
  0
POINT
  5
15F
330
155
100
AcDbEntity
  8
DEFPOINTS
 62
     0
440
 16777216
100
AcDbPoint
 10
72.26743
 20
325.75257
 30
0.0
  0
POINT
  5
160
330
155
100
AcDbEntity
  8
DEFPOINTS
 62
     0
440
 16777216
100
AcDbPoint
 10
72.26743
 20
390.0
 30
0.0
  0
ENDBLK
  5
157
330
155
100
AcDbEntity
  8
0
100
AcDbBlockEnd
  0
BLOCK
  5
163
330
162
100
AcDbEntity
  8
0
100
AcDbBlockBegin
  2
*D8
 70
     1
 10
0.0
 20
0.0
 30
0.0
  3
*D8
  1
*D9
  0
LINE
  5
165
330
162
100
AcDbEntity
  8
0
  6
Continuous
 62
    70
440
 16777216
100
AcDbLine
 10
492.759779
 20
148.783767
 30
0.0
 11
480.010437
 21
148.783767
 31
0.0
  0
LINE
  5
166
330
162
100
AcDbEntity
  8
0
  6
Continuous
 62
    70
440
 16777216
100
AcDbLine
 10
444.585894
 20
144.783767
 30
0.0
 11
484.010437
 21
144.783767
 31
0.0
  0
LINE
  5
167
330
162
100
AcDbEntity
  8
0
  6
Continuous
 62
    70
440
 16777216
100
AcDbLine
 10
482.010437
 20
144.783767
 30
0.0
 11
482.010437
 21
130.307576
 31
0.0
  0
LINE
  5
168
330
162
100
AcDbEntity
  8
0
  6
Continuous
 62
    70
440
 16777216
100
AcDbLine
 10
482.010437
 20
148.783767
 30
0.0
 11
482.010437
 21
144.783767
 31
0.0
  0
LINE
  5
169
330
162
100
AcDbEntity
  8
0
  6
Continuous
 62
    70
440
 16777216
100
AcDbLine
 10
482.010437
 20
152.783767
 30
0.0
 11
482.010437
 21
156.783767
 31
0.0
  0
LINE
  5
16A
330
162
100
AcDbEntity
  8
0
  6
Continuous
 62
    70
440
 16777216
100
AcDbLine
 10
482.010437
 20
140.783767
 30
0.0
 11
482.010437
 21
136.783767
 31
0.0
  0
INSERT
  5
16B
330
162
100
AcDbEntity
  8
0
 62
    70
440
 16777216
100
AcDbBlockReference
  2
_CLOSED
 10
482.010437
 20
148.783767
 30
0.0
 41
4.0
 42
4.0
 43
4.0
 50
270.0
  0
INSERT
  5
16C
330
162
100
AcDbEntity
  8
0
 62
    70
440
 16777216
100
AcDbBlockReference
  2
_CLOSED
 10
482.010437
 20
144.783767
 30
0.0
 41
4.0
 42
4.0
 43
4.0
 50
90.0
  0
MTEXT
  5
16D
330
162
100
AcDbEntity
  8
0
 62
    70
440
 16777216
100
AcDbMText
 10
478.010437
 20
133.545672
 30
0.0
 40
4.0
 41
0.0
 46
0.0
 71
     5
 72
     1
  1
F
 11
0.0
 21
1.0
 31
0.0
 73
     1
 44
1.0
  0
POINT
  5
16E
330
162
100
AcDbEntity
  8
DEFPOINTS
 62
     0
440
 16777216
100
AcDbPoint
 10
493.959779
 20
148.783767
 30
0.0
  0
POINT
  5
16F
330
162
100
AcDbEntity
  8
DEFPOINTS
 62
     0
440
 16777216
100
AcDbPoint
 10
443.385894
 20
144.783767
 30
0.0
  0
POINT
  5
170
330
162
100
AcDbEntity
  8
DEFPOINTS
 62
     0
440
 16777216
100
AcDbPoint
 10
482.010437
 20
144.783767
 30
0.0
  0
ENDBLK
  5
164
330
162
100
AcDbEntity
  8
0
100
AcDbBlockEnd
  0
BLOCK
  5
173
330
172
100
AcDbEntity
  8
0
100
AcDbBlockBegin
  2
*D9
 70
     1
 10
0.0
 20
0.0
 30
0.0
  3
*D9
  1
*D10
  0
LINE
  5
175
330
172
100
AcDbEntity
  8
0
  6
Continuous
 62
    70
440
 16777216
100
AcDbLine
 10
444.585894
 20
184.783767
 30
0.0
 11
484.010437
 21
184.783767
 31
0.0
  0
LINE
  5
176
330
172
100
AcDbEntity
  8
0
  6
Continuous
 62
    70
440
 16777216
100
AcDbLine
 10
492.759779
 20
179.783767
 30
0.0
 11
480.010437
 21
179.783767
 31
0.0
  0
LINE
  5
177
330
172
100
AcDbEntity
  8
0
  6
Continuous
 62
    70
440
 16777216
100
AcDbLine
 10
482.010437
 20
184.783767
 30
0.0
 11
482.010437
 21
199.64091
 31
0.0
  0
LINE
  5
178
330
172
100
AcDbEntity
  8
0
  6
Continuous
 62
    70
440
 16777216
100
AcDbLine
 10
482.010437
 20
184.783767
 30
0.0
 11
482.010437
 21
179.783767
 31
0.0
  0
LINE
  5
179
330
172
100
AcDbEntity
  8
0
  6
Continuous
 62
    70
440
 16777216
100
AcDbLine
 10
482.010437
 20
188.783767
 30
0.0
 11
482.010437
 21
192.783767
 31
0.0
  0
LINE
  5
17A
330
172
100
AcDbEntity
  8
0
  6
Continuous
 62
    70
440
 16777216
100
AcDbLine
 10
482.010437
 20
175.7837669999999
 30
0.0
 11
482.010437
 21
171.7837669999999
 31
0.0
  0
INSERT
  5
17B
330
172
100
AcDbEntity
  8
0
 62
    70
440
 16777216
100
AcDbBlockReference
  2
_CLOSED
 10
482.010437
 20
184.783767
 30
0.0
 41
4.0
 42
4.0
 43
4.0
 50
270.0
  0
INSERT
  5
17C
330
172
100
AcDbEntity
  8
0
 62
    70
440
 16777216
100
AcDbBlockReference
  2
_CLOSED
 10
482.010437
 20
179.783767
 30
0.0
 41
4.0
 42
4.0
 43
4.0
 50
90.0
  0
MTEXT
  5
17D
330
172
100
AcDbEntity
  8
0
 62
    70
440
 16777216
100
AcDbMText
 10
478.010437
 20
196.212338
 30
0.0
 40
4.0
 41
0.0
 46
0.0
 71
     5
 72
     1
  1
G
 11
0.0
 21
1.0
 31
0.0
 73
     1
 44
1.0
  0
POINT
  5
17E
330
172
100
AcDbEntity
  8
DEFPOINTS
 62
     0
440
 16777216
100
AcDbPoint
 10
443.385894
 20
184.783767
 30
0.0
  0
POINT
  5
17F
330
172
100
AcDbEntity
  8
DEFPOINTS
 62
     0
440
 16777216
100
AcDbPoint
 10
493.959779
 20
179.783767
 30
0.0
  0
POINT
  5
180
330
172
100
AcDbEntity
  8
DEFPOINTS
 62
     0
440
 16777216
100
AcDbPoint
 10
482.010437
 20
179.783767
 30
0.0
  0
ENDBLK
  5
174
330
172
100
AcDbEntity
  8
0
100
AcDbBlockEnd
  0
BLOCK
  5
183
330
182
100
AcDbEntity
  8
0
100
AcDbBlockBegin
  2
*D10
 70
     1
 10
0.0
 20
0.0
 30
0.0
  3
*D10
  1
*D11
  0
LINE
  5
476
330
182
100
AcDbEntity
  8
0
  6
Continuous
 62
    70
440
 16777216
370
    -2
100
AcDbLine
 10
444.5858940000002
 20
184.783767
 30
0.0
 11
473.428162
 21
184.783767
 31
0.0
  0
LINE
  5
477
330
182
100
AcDbEntity
  8
0
  6
Continuous
 62
    70
440
 16777216
370
    -2
100
AcDbLine
 10
444.5858940000002
 20
144.783767
 30
0.0
 11
473.428162
 21
144.783767
 31
0.0
  0
LINE
  5
478
330
182
100
AcDbEntity
  8
0
  6
Continuous
 62
    70
440
 16777216
370
    -2
100
AcDbLine
 10
471.428162
 20
180.7837670000001
 30
0.0
 11
471.428162
 21
148.783767
 31
0.0
  0
INSERT
  5
479
330
182
100
AcDbEntity
  8
0
  6
Continuous
 62
    70
440
 16777216
370
    -2
100
AcDbBlockReference
  2
_CLOSED
 10
471.428162
 20
184.783767
 30
0.0
 41
4.0
 42
4.0
 43
4.0
 50
90.0
  0
INSERT
  5
47A
330
182
100
AcDbEntity
  8
0
  6
Continuous
 62
    70
440
 16777216
370
    -2
100
AcDbBlockReference
  2
_CLOSED
 10
471.428162
 20
144.783767
 30
0.0
 41
4.0
 42
4.0
 43
4.0
 50
270.0
  0
MTEXT
  5
47B
330
182
100
AcDbEntity
  8
0
  6
Continuous
 62
    70
440
 16777216
100
AcDbMText
 10
467.3861281016948
 20
164.783768
 30
0.0
 40
4.0
 41
0.0
 46
0.0
 71
     5
 72
     1
  1
TS
 11
0.0000000000000001
 21
1.0
 31
0.0
 73
     1
 44
1.0
  0
POINT
  5
47C
330
182
100
AcDbEntity
  8
DEFPOINTS
  6
Continuous
 62
     0
440
 16777216
100
AcDbPoint
 10
443.3858940000003
 20
184.783767
 30
0.0
  0
POINT
  5
47D
330
182
100
AcDbEntity
  8
DEFPOINTS
  6
Continuous
 62
     0
440
 16777216
100
AcDbPoint
 10
443.3858940000003
 20
144.783767
 30
0.0
  0
POINT
  5
47E
330
182
100
AcDbEntity
  8
DEFPOINTS
  6
Continuous
 62
     0
440
 16777216
100
AcDbPoint
 10
471.428162
 20
144.783767
 30
0.0
  0
ENDBLK
  5
184
330
182
100
AcDbEntity
  8
0
100
AcDbBlockEnd
  0
BLOCK
  5
197
330
18E
100
AcDbEntity
  8
0
100
AcDbBlockBegin
  2
FORMAT
 70
     0
 10
0.0
 20
0.0
 30
0.0
  3
FORMAT
  1
FORMAT
  0
LINE
  5
18F
330
18E
100
AcDbEntity
  8
0
  6
Continuous
 62
     1
100
AcDbLine
 10
0.0
 20
5.0
 30
0.0
 11
594.0
 21
5.0
 31
0.0
  0
LINE
  5
190
330
18E
100
AcDbEntity
  8
0
  6
Continuous
 62
     1
100
AcDbLine
 10
594.0
 20
5.0
 30
0.0
 11
594.0
 21
425.0
 31
0.0
  0
LINE
  5
191
330
18E
100
AcDbEntity
  8
0
  6
Continuous
 62
     1
100
AcDbLine
 10
594.0
 20
425.0
 30
0.0
 11
0.0
 21
425.0
 31
0.0
  0
LINE
  5
192
330
18E
100
AcDbEntity
  8
0
  6
Continuous
 62
     1
100
AcDbLine
 10
0.0
 20
425.0
 30
0.0
 11
0.0
 21
5.0
 31
0.0
  0
LINE
  5
193
330
18E
100
AcDbEntity
  8
0
  6
Continuous
 62
     7
100
AcDbLine
 10
25.0
 20
15.0
 30
0.0
 11
584.0
 21
15.0
 31
0.0
  0
LINE
  5
194
330
18E
100
AcDbEntity
  8
0
  6
Continuous
 62
     7
100
AcDbLine
 10
584.0
 20
15.0
 30
0.0
 11
584.0
 21
415.0
 31
0.0
  0
LINE
  5
195
330
18E
100
AcDbEntity
  8
0
  6
Continuous
 62
     7
100
AcDbLine
 10
584.0
 20
415.0
 30
0.0
 11
25.0
 21
415.0
 31
0.0
  0
LINE
  5
196
330
18E
100
AcDbEntity
  8
0
  6
Continuous
 62
     7
100
AcDbLine
 10
25.0
 20
415.0
 30
0.0
 11
25.0
 21
15.0
 31
0.0
  0
ENDBLK
  5
198
330
18E
100
AcDbEntity
  8
0
100
AcDbBlockEnd
  0
BLOCK
  5
19C
330
19B
100
AcDbEntity
  8
0
100
AcDbBlockBegin
  2
*D12
 70
     1
 10
0.0
 20
0.0
 30
0.0
  3
*D12
  1
*D13
  0
LINE
  5
19E
330
19B
100
AcDbEntity
  8
0
  6
Continuous
 62
    70
440
 16777216
100
AcDbLine
 10
341.054125
 20
164.95257
 30
0.0
 11
341.054125
 21
108.0
 31
0.0
  0
LINE
  5
19F
330
19B
100
AcDbEntity
  8
0
  6
Continuous
 62
    70
440
 16777216
100
AcDbLine
 10
372.254125
 20
164.95257
 30
0.0
 11
372.254125
 21
108.0
 31
0.0
  0
LINE
  5
1A0
330
19B
100
AcDbEntity
  8
0
  6
Continuous
 62
    70
440
 16777216
100
AcDbLine
 10
345.054125
 20
110.0
 30
0.0
 11
368.254125
 21
110.0
 31
0.0
  0
INSERT
  5
1A1
330
19B
100
AcDbEntity
  8
0
 62
    70
440
 16777216
100
AcDbBlockReference
  2
_CLOSED
 10
341.054125
 20
110.0
 30
0.0
 41
4.0
 42
4.0
 43
4.0
 50
180.0
  0
INSERT
  5
1A2
330
19B
100
AcDbEntity
  8
0
 62
    70
440
 16777216
100
AcDbBlockReference
  2
_CLOSED
 10
372.254125
 20
110.0
 30
0.0
 41
4.0
 42
4.0
 43
4.0
  0
MTEXT
  5
1A3
330
19B
100
AcDbEntity
  8
0
 62
    70
440
 16777216
100
AcDbMText
 10
356.654144
 20
114.8
 30
0.0
 40
4.0
 41
0.0
 46
0.0
 71
     5
 72
     1
  1
31.2{\H2.400000;\S+0.2^  0;}
 73
     1
 44
1.0
  0
POINT
  5
1A4
330
19B
100
AcDbEntity
  8
DEFPOINTS
 62
     0
440
 16777216
100
AcDbPoint
 10
341.054125
 20
166.15257
 30
0.0
  0
POINT
  5
1A5
330
19B
100
AcDbEntity
  8
DEFPOINTS
 62
     0
440
 16777216
100
AcDbPoint
 10
372.254125
 20
166.15257
 30
0.0
  0
POINT
  5
1A6
330
19B
100
AcDbEntity
  8
DEFPOINTS
 62
     0
440
 16777216
100
AcDbPoint
 10
372.254125
 20
110.0
 30
0.0
  0
ENDBLK
  5
19D
330
19B
100
AcDbEntity
  8
0
100
AcDbBlockEnd
  0
BLOCK
  5
216
330
1FE
100
AcDbEntity
  8
0
100
AcDbBlockBegin
  2
GRI
 70
     0
 10
469.769923
 20
53.5
 30
0.0
  3
GRI
  1
GRI
  0
LINE
  5
1FF
330
1FE
100
AcDbEntity
  8
1
  6
Continuous
 62
    70
100
AcDbLine
 10
469.9778839999999
 20
53.81535699999999
 30
0.0
 11
468.757715
 21
53.64334799999999
 31
0.0
  0
ARC
  5
200
330
1FE
100
AcDbEntity
  8
1
  6
Continuous
 62
    70
100
AcDbCircle
 10
472.03275
 20
49.29278899999999
 30
0.0
 40
7.447398775484884
100
AcDbArc
 50
98.750294
 51
121.812101
  0
ARC
  5
201
330
1FE
100
AcDbEntity
  8
1
  6
Continuous
 62
    70
100
AcDbCircle
 10
469.5307009999999
 20
53.363704
 30
0.0
 40
2.669166291932128
100
AcDbArc
 50
122.235601
 51
155.794454
  0
ARC
  5
202
330
1FE
100
AcDbEntity
  8
1
  6
Continuous
 62
    70
100
AcDbCircle
 10
467.855981
 20
54.678275
 30
0.0
 40
1.064647598782699
100
AcDbArc
 50
239.87305
 51
267.454538
  0
ARC
  5
203
330
1FE
100
AcDbEntity
  8
1
  6
Continuous
 62
    70
100
AcDbCircle
 10
468.162316
 20
57.63071
 30
0.0
 40
4.031569867004976
100
AcDbArc
 50
264.967997
 51
278.492753
  0
LINE
  5
204
330
1FE
100
AcDbEntity
  8
1
  6
Continuous
 62
    70
100
AcDbLine
 10
470.059229
 20
54.81874300000001
 30
0.0
 11
469.89654
 21
51.378562
 31
0.0
  0
LINE
  5
205
330
1FE
100
AcDbEntity
  8
1
  6
Continuous
 62
    70
100
AcDbLine
 10
469.89654
 20
51.378562
 30
0.0
 11
469.89654
 21
50.34650599999999
 31
0.0
  0
LINE
  5
206
330
1FE
100
AcDbEntity
  8
1
  6
Continuous
 62
    70
100
AcDbLine
 10
472.445333
 20
55.87946399999999
 30
0.0
 11
472.490732
 21
55.711463
 31
0.0
  0
LINE
  5
207
330
1FE
100
AcDbEntity
  8
1
  6
Continuous
 62
    70
100
AcDbLine
 10
470.342369
 20
54.582514
 30
0.0
 11
470.65247
 21
53.633334
 31
0.0
  0
LINE
  5
208
330
1FE
100
AcDbEntity
  8
1
  6
Continuous
 62
    70
100
AcDbLine
 10
470.8800429999999
 20
53.90814599999999
 30
0.0
 11
470.8184440000001
 21
54.446055
 31
0.0
  0
ARC
  5
209
330
1FE
100
AcDbEntity
  8
1
  6
Continuous
 62
    70
100
AcDbCircle
 10
471.349973
 20
54.539979
 30
0.0
 40
0.5397636547120755
100
AcDbArc
 50
179.908689
 51
190.02106
  0
ARC
  5
20A
330
1FE
100
AcDbEntity
  8
1
  6
Continuous
 62
    70
100
AcDbCircle
 10
470.95108
 20
54.54112399999999
 30
0.0
 40
0.1408704476266678
100
AcDbArc
 50
125.157056
 51
180.115819
  0
ARC
  5
20B
330
1FE
100
AcDbEntity
  8
1
  6
Continuous
 62
    70
100
AcDbCircle
 10
471.1433469999999
 20
54.248438
 30
0.0
 40
0.4910060234474969
100
AcDbArc
 50
99.47987900000001
 51
123.833493
  0
ARC
  5
20C
330
1FE
100
AcDbEntity
  8
1
  6
Continuous
 62
    70
100
AcDbCircle
 10
471.238723
 20
53.762376
 30
0.0
 40
0.9862383072118063
100
AcDbArc
 50
79.705652
 51
100.294348
  0
ARC
  5
20D
330
1FE
100
AcDbEntity
  8
1
  6
Continuous
 62
    70
100
AcDbCircle
 10
470.3093169999999
 20
48.499301
 30
0.0
 40
6.330735078624655
100
AcDbArc
 50
76.17872
 51
79.941805
  0
LINE
  5
20E
330
1FE
100
AcDbEntity
  8
1
  6
Continuous
 62
    70
100
AcDbLine
 10
471.8216919999999
 20
54.64673399999999
 30
0.0
 11
472.0019129999999
 21
54.595798
 31
0.0
  0
ARC
  5
20F
330
1FE
100
AcDbEntity
  8
1
  6
Continuous
 62
    70
100
AcDbCircle
 10
471.9394559999999
 20
54.411024
 30
0.0
 40
0.1950445151686608
100
AcDbArc
 50
8.980522
 51
71.32400099999999
  0
ARC
  5
210
330
1FE
100
AcDbEntity
  8
1
  6
Continuous
 62
    70
100
AcDbCircle
 10
477.315873
 20
54.364302
 30
0.0
 40
5.184337807824106
100
AcDbArc
 50
179.147125
 51
187.3543
  0
LINE
  5
211
330
1FE
100
AcDbEntity
  8
1
  6
Continuous
 62
    70
100
AcDbLine
 10
470.91817
 20
53.484872
 30
0.0
 11
470.8800429999999
 21
53.90814599999999
 31
0.0
  0
LINE
  5
212
330
1FE
100
AcDbEntity
  8
1
  6
Continuous
 62
    70
100
AcDbLine
 10
470.722324
 20
53.48028299999999
 30
0.0
 11
470.7520749999999
 21
53.430713
 31
0.0
  0
ARC
  5
213
330
1FE
100
AcDbEntity
  8
1
  6
Continuous
 62
    70
100
AcDbCircle
 10
470.828915
 20
53.47683199999999
 30
0.0
 40
0.0896173153309832
100
AcDbArc
 50
210.971971
 51
5.147228
  0
ARC
  5
214
330
1FE
100
AcDbEntity
  8
1
  6
Continuous
 62
    70
100
AcDbCircle
 10
471.3653879999999
 20
53.86624699999999
 30
0.0
 40
0.75
100
AcDbArc
 50
198.092415
 51
210.971971
  0
ARC
  5
215
330
1FE
100
AcDbEntity
  8
1
  6
Continuous
 62
    70
100
AcDbCircle
 10
467.597449
 20
54.232767
 30
0.0
 40
0.5495587889777483
100
AcDbArc
 50
155.794454
 51
239.87305
  0
ENDBLK
  5
217
330
1FE
100
AcDbEntity
  8
0
100
AcDbBlockEnd
  0
BLOCK
  5
25E
330
219
100
AcDbEntity
  8
0
100
AcDbBlockBegin
  2
GRUPPO
 70
     0
 10
549.4639799999999
 20
53.241618
 30
0.0
  3
GRUPPO
  1
GRUPPO
  0
SPLINE
  5
21A
330
219
100
AcDbEntity
  8
LIVELLO_1
 62
     7
100
AcDbSpline
210
0.0
220
0.0
230
1.0
 70
    11
 71
     3
 72
    32
 73
    28
 74
     0
 42
0.000000001
 43
0.0000000001
 40
0.0
 40
0.0
 40
0.0
 40
0.0
 40
1.0
 40
1.0
 40
1.0
 40
2.0
 40
2.0
 40
2.0
 40
3.0
 40
3.0
 40
3.0
 40
4.0
 40
4.0
 40
4.0
 40
5.0
 40
5.0
 40
5.0
 40
6.0
 40
6.0
 40
6.0
 40
7.0
 40
7.0
 40
7.0
 40
8.0
 40
8.0
 40
8.0
 40
9.0
 40
9.0
 40
9.0
 40
9.0
 10
545.5999590314765
 20
60.07576161546062
 30
0.0
 10
545.5999590314765
 20
60.07576161546062
 30
0.0
 10
549.048998464516
 20
60.07557883174374
 30
0.0
 10
549.048998464516
 20
60.07557883174374
 30
0.0
 10
549.2399807213184
 20
60.07579881227393
 30
0.0
 10
549.3949191935187
 20
59.92103870124015
 30
0.0
 10
549.3949191935187
 20
59.7300563177466
 30
0.0
 10
549.3949191935187
 20
59.7300563177466
 30
0.0
 10
549.3949191935187
 20
50.31972242105922
 30
0.0
 10
549.3949191935187
 20
50.31972242105922
 30
0.0
 10
549.3949191935187
 20
50.12889547926635
 30
0.0
 10
549.549614994929
 20
49.97419967785333
 30
0.0
 10
549.7404419367236
 20
49.97419967785333
 30
0.0
 10
549.7404419367236
 20
49.97419967785333
 30
0.0
 10
554.703311152796
 20
49.97787101591365
 30
0.0
 10
554.703311152796
 20
49.97787101591365
 30
0.0
 10
554.703311152796
 20
49.97787101591365
 30
0.0
 10
553.5522378222256
 20
46.42773390000735
 30
0.0
 10
553.5522378222256
 20
46.42773390000735
 30
0.0
 10
553.5522378222256
 20
46.42773390000735
 30
0.0
 10
545.9309278376669
 20
46.42502253037267
 30
0.0
 10
545.9309278376669
 20
46.42502253037267
 30
0.0
 10
545.7401008958741
 20
46.42502253037267
 30
0.0
 10
545.5999004395202
 20
46.58487272485317
 30
0.0
 10
545.5999004395202
 20
46.77569966664605
 30
0.0
 10
545.5999004395202
 20
46.77569966664605
 30
0.0
 10
545.5999590314765
 20
60.07576161546062
 30
0.0
 10
545.5999590314765
 20
60.07576161546062
 30
0.0
  0
INSERT
  5
226
330
219
100
AcDbEntity
  8
LIVELLO_1
 62
     7
100
AcDbBlockReference
  2
POLYLINE_1
 10
564.0120739999999
 20
60.075793
 30
0.0
  0
INSERT
  5
232
330
219
100
AcDbEntity
  8
LIVELLO_1
 62
     7
100
AcDbBlockReference
  2
POLYLINE_2
 10
578.883638
 20
60.075793
 30
0.0
  0
INSERT
  5
24C
330
219
100
AcDbEntity
  8
0
  6
Continuous
 62
     7
100
AcDbBlockReference
  2
GRUPPO1
 10
539.381204
 20
53.25041399999999
 30
0.0
  0
HATCH
  5
24D
330
219
100
AcDbEntity
  8
0
  6
Continuous
 62
     7
100
AcDbHatch
 10
0.0
 20
0.0
 30
0.0
210
0.0
220
0.0
230
1.0
  2
SOLID
 70
     1
 71
     0
 91
        1
 92
        1
 93
        1
 72
     4
 94
        3
 73
     0
 74
     0
 95
       32
 96
       28
 40
0.0
 40
0.0
 40
0.0
 40
0.0
 40
1.0
 40
1.0
 40
1.0
 40
2.0
 40
2.0
 40
2.0
 40
3.0
 40
3.0
 40
3.0
 40
4.0
 40
4.0
 40
4.0
 40
5.0
 40
5.0
 40
5.0
 40
6.0
 40
6.0
 40
6.0
 40
7.0
 40
7.0
 40
7.0
 40
8.0
 40
8.0
 40
8.0
 40
9.0
 40
9.0
 40
9.0
 40
9.0
 10
545.5999415309682
 20
60.07576239618516
 10
545.5999415309682
 20
60.07576239618516
 10
549.0489809640077
 20
60.07557961246829
 10
549.0489809640077
 20
60.07557961246829
 10
549.2399632208103
 20
60.07579959299848
 10
549.3949016930104
 20
59.9210394819647
 10
549.3949016930104
 20
59.73005709847114
 10
549.3949016930104
 20
59.73005709847114
 10
549.3949016930104
 20
50.31972320178375
 10
549.3949016930104
 20
50.31972320178375
 10
549.3949016930104
 20
50.12889625999088
 10
549.5495974944208
 20
49.97420045857785
 10
549.7404244362153
 20
49.97420045857785
 10
549.7404244362153
 20
49.97420045857785
 10
554.7032936522878
 20
49.97787179663818
 10
554.7032936522878
 20
49.97787179663818
 10
554.7032936522878
 20
49.97787179663818
 10
553.5522203217174
 20
46.42773468073189
 10
553.5522203217174
 20
46.42773468073189
 10
553.5522203217174
 20
46.42773468073189
 10
545.9309103371587
 20
46.42502331109722
 10
545.9309103371587
 20
46.42502331109722
 10
545.7400833953658
 20
46.42502331109722
 10
545.5998829390121
 20
46.58487350557772
 10
545.5998829390121
 20
46.7757004473706
 10
545.5998829390121
 20
46.7757004473706
 10
545.5999415309682
 20
60.07576239618516
 10
545.5999415309682
 20
60.07576239618516
 97
        0
 97
        0
 75
     0
 76
     1
 98
        0
450
        0
451
        0
460
0.0
461
0.0
452
        0
462
0.0
453
        0
470

  0
CIRCLE
  5
24E
330
219
100
AcDbEntity
  8
0
  6
Continuous
 62
     7
100
AcDbCircle
 10
526.948019
 20
53.257796
 30
0.0
 40
6.825000000000001
  0
ARC
  5
24F
330
219
100
AcDbEntity
  8
0
  6
Continuous
 62
     7
100
AcDbCircle
 10
526.948019
 20
53.257796
 30
0.0
 40
5.234691921888236
100
AcDbArc
 50
324.803609
 51
34.764129
  0
LINE
  5
250
330
219
100
AcDbEntity
  8
0
  6
Continuous
 62
     7
100
AcDbLine
 10
529.949013
 20
56.242614
 30
0.0
 11
531.2483519999999
 21
56.242614
 31
0.0
  0
LINE
  5
251
330
219
100
AcDbEntity
  8
0
  6
Continuous
 62
     7
100
AcDbLine
 10
529.949013
 20
56.242614
 30
0.0
 11
529.949013
 21
57.54685699999999
 31
0.0
  0
LINE
  5
252
330
219
100
AcDbEntity
  8
0
  6
Continuous
 62
     7
100
AcDbLine
 10
529.949013
 20
50.24062
 30
0.0
 11
531.225711
 21
50.24062
 31
0.0
  0
LINE
  5
253
330
219
100
AcDbEntity
  8
0
  6
Continuous
 62
     7
100
AcDbLine
 10
529.949013
 20
50.24062
 30
0.0
 11
529.949013
 21
48.968736
 31
0.0
  0
LINE
  5
254
330
219
100
AcDbEntity
  8
0
  6
Continuous
 62
     7
100
AcDbLine
 10
523.9470259999999
 20
50.24062
 30
0.0
 11
522.670328
 21
50.24062
 31
0.0
  0
LINE
  5
255
330
219
100
AcDbEntity
  8
0
  6
Continuous
 62
     7
100
AcDbLine
 10
523.9470259999999
 20
50.24062
 30
0.0
 11
523.9470259999999
 21
48.968736
 31
0.0
  0
LINE
  5
256
330
219
100
AcDbEntity
  8
0
  6
Continuous
 62
     7
100
AcDbLine
 10
523.9470259999999
 20
56.242614
 30
0.0
 11
522.6476869999999
 21
56.242614
 31
0.0
  0
LINE
  5
257
330
219
100
AcDbEntity
  8
0
  6
Continuous
 62
     7
100
AcDbLine
 10
523.9470259999999
 20
56.242614
 30
0.0
 11
523.9470259999999
 21
57.54685699999999
 31
0.0
  0
ARC
  5
258
330
219
100
AcDbEntity
  8
0
  6
Continuous
 62
     7
100
AcDbCircle
 10
526.948019
 20
53.257796
 30
0.0
 40
5.234691921888236
100
AcDbArc
 50
145.235871
 51
215.196391
  0
LINE
  5
259
330
219
100
AcDbEntity
  8
0
  6
Continuous
 62
     7
100
AcDbLine
 10
523.9470259999999
 20
48.968736
 30
0.0
 11
529.949013
 21
57.54685699999999
 31
0.0
  0
LINE
  5
25A
330
219
100
AcDbEntity
  8
0
  6
Continuous
 62
     7
100
AcDbLine
 10
523.9470259999999
 20
57.54685699999999
 30
0.0
 11
529.949013
 21
48.968736
 31
0.0
  0
CIRCLE
  5
25B
330
219
100
AcDbEntity
  8
0
  6
Continuous
 62
     7
100
AcDbCircle
 10
526.948019
 20
53.257796
 30
0.0
 40
2.405
  0
CIRCLE
  5
25C
330
219
100
AcDbEntity
  8
0
  6
Continuous
 62
     7
100
AcDbCircle
 10
526.948019
 20
53.257796
 30
0.0
 40
3.4775
  0
HATCH
  5
25D
330
219
100
AcDbEntity
  8
0
  6
Continuous
 62
     7
100
AcDbHatch
 10
0.0
 20
0.0
 30
0.0
210
0.0
220
0.0
230
1.0
  2
SOLID
 70
     1
 71
     0
 91
        6
 92
        1
 93
        1
 72
     2
 10
526.9480019405484
 20
53.25779710803182
 40
6.825000000000001
 50
0.0
 51
360.0
 73
     1
 97
        0
 92
        0
 93
       16
 72
     2
 10
526.9480019405481
 20
53.25779710803185
 40
5.234691921888527
 50
325.2358711235836
 51
395.196391047749
 73
     0
 72
     1
 10
531.2256937935521
 20
50.24062095675617
 11
529.9489952877163
 21
50.24062095675617
 72
     1
 10
529.9489952877163
 20
50.24062095675617
 11
529.9489952877163
 21
48.96873678584753
 72
     1
 10
529.9489952877163
 20
48.96873678584753
 11
528.9416157998742
 21
50.40849718877014
 72
     2
 10
526.9480019405484
 20
53.25779710803186
 40
3.477500000000063
 50
55.02007494874702
 51
124.9799250512529
 73
     0
 72
     1
 10
524.9543880812228
 20
50.40849718877014
 11
523.9470085933804
 21
48.96873678584753
 72
     1
 10
523.9470085933804
 20
48.96873678584753
 11
523.9470085933804
 21
50.24062095675617
 72
     1
 10
523.9470085933804
 20
50.24062095675617
 11
522.6703100875446
 21
50.24062095675617
 72
     2
 10
526.9480019405488
 20
53.25779710803185
 40
5.234691921888528
 50
144.803608952251
 51
214.7641288764164
 73
     0
 72
     1
 10
522.6476692635241
 20
56.24261508975178
 11
523.9470085933804
 21
56.24261508975178
 72
     1
 10
523.9470085933804
 20
56.24261508975178
 11
523.9470085933804
 21
57.54685743021607
 72
     1
 10
523.9470085933804
 20
57.54685743021609
 11
524.9543880812228
 21
56.10709702729347
 72
     2
 10
526.9480019405484
 20
53.25779710803175
 40
3.477500000000063
 50
235.020074948747
 51
304.979925051253
 73
     0
 72
     1
 10
528.9416157998742
 20
56.10709702729346
 11
529.9489952877163
 21
57.54685743021607
 72
     1
 10
529.9489952877163
 20
57.54685743021609
 11
529.9489952877163
 21
56.24261508975178
 72
     1
 10
529.9489952877163
 20
56.24261508975178
 11
531.2483346175727
 21
56.24261508975178
 97
        0
 92
        1
 93
        3
 72
     1
 10
526.9480019405484
 20
53.25779710803182
 11
528.3267629273718
 21
55.22834097742773
 72
     2
 10
526.9480019405484
 20
53.25779710803171
 40
2.405000000000101
 50
55.02007494874731
 51
124.9799250512527
 73
     1
 72
     1
 10
525.5692409537251
 20
55.22834097742773
 11
526.9480019405484
 21
53.25779710803182
 97
        0
 92
        1
 93
        3
 72
     1
 10
526.9480019405484
 20
53.25779710803182
 11
525.5692409537251
 21
51.28725323863588
 72
     2
 10
526.9480019405484
 20
53.2577971080319
 40
2.405000000000101
 50
235.0200749487474
 51
304.9799250512527
 73
     1
 72
     1
 10
528.3267629273718
 20
51.28725323863588
 11
526.9480019405484
 21
53.25779710803182
 97
        0
 92
        1
 93
        6
 72
     2
 10
526.9480019405486
 20
53.25779710803161
 40
2.404999999999745
 50
359.9999999999953
 51
415.0200749487477
 73
     0
 72
     1
 10
528.3267629273718
 20
51.28725323863588
 11
528.9416157998742
 21
50.40849718877016
 72
     2
 10
526.9480019405488
 20
53.25779710803156
 40
3.477499999999547
 50
304.9799250512498
 51
360.0000000000041
 73
     1
 72
     2
 10
526.9480019405488
 20
53.25779710803207
 40
3.477499999999508
 50
359.9999999999959
 51
415.0200749487501
 73
     1
 72
     1
 10
528.9416157998742
 20
56.10709702729346
 11
528.3267629273716
 21
55.22834097742773
 72
     2
 10
526.9480019405486
 20
53.25779710803201
 40
2.404999999999727
 50
304.9799250512523
 51
360.0000000000047
 73
     0
 97
        0
 92
        1
 93
        4
 72
     2
 10
526.9480019405485
 20
53.25779710803182
 40
2.405000000000085
 50
124.9799250512563
 51
235.0200749487437
 73
     0
 72
     1
 10
525.5692409537251
 20
55.22834097742773
 11
524.9543880812228
 21
56.10709702729346
 72
     2
 10
526.9480019405485
 20
53.25779710803182
 40
3.477500000000076
 50
124.9799250512551
 51
235.0200749487449
 73
     1
 72
     1
 10
524.9543880812228
 20
50.40849718877014
 11
525.5692409537251
 21
51.28725323863588
 97
        0
 75
     0
 76
     1
 98
        0
450
        0
451
        0
460
0.0
461
0.0
452
        0
462
0.0
453
        0
470

  0
ENDBLK
  5
25F
330
219
100
AcDbEntity
  8
0
100
AcDbBlockEnd
  0
BLOCK
  5
224
330
21B
100
AcDbEntity
  8
0
100
AcDbBlockBegin
  2
POLYLINE_1
 70
     0
 10
564.0120739999999
 20
60.075793
 30
0.0
  3
POLYLINE_1
  1
POLYLINE_1
  0
LINE
  5
21C
330
21B
100
AcDbEntity
  8
LIVELLO_1
 62
     7
100
AcDbLine
 10
564.0120739999999
 20
60.075793
 30
0.0
 11
558.6841329999999
 21
60.075793
 31
0.0
  0
LINE
  5
21D
330
21B
100
AcDbEntity
  8
LIVELLO_1
 62
     7
100
AcDbLine
 10
558.6841329999999
 20
60.075793
 30
0.0
 11
554.251934
 21
46.427983
 31
0.0
  0
LINE
  5
21E
330
21B
100
AcDbEntity
  8
LIVELLO_1
 62
     7
100
AcDbLine
 10
554.251934
 20
46.427983
 30
0.0
 11
558.19573
 21
46.427983
 31
0.0
  0
LINE
  5
21F
330
21B
100
AcDbEntity
  8
LIVELLO_1
 62
     7
100
AcDbLine
 10
558.19573
 20
46.427983
 30
0.0
 11
561.3481059999998
 21
56.171067
 31
0.0
  0
LINE
  5
220
330
21B
100
AcDbEntity
  8
LIVELLO_1
 62
     7
100
AcDbLine
 10
561.3481059999998
 20
56.171067
 30
0.0
 11
564.5004809999999
 21
46.427983
 31
0.0
  0
LINE
  5
221
330
21B
100
AcDbEntity
  8
LIVELLO_1
 62
     7
100
AcDbLine
 10
564.5004809999999
 20
46.427983
 30
0.0
 11
568.444273
 21
46.427983
 31
0.0
  0
LINE
  5
222
330
21B
100
AcDbEntity
  8
LIVELLO_1
 62
     7
100
AcDbLine
 10
568.444273
 20
46.427983
 30
0.0
 11
564.0120739999999
 21
60.075793
 31
0.0
  0
HATCH
  5
223
330
21B
100
AcDbEntity
  8
0
  6
Continuous
 62
     7
100
AcDbHatch
 10
0.0
 20
0.0
 30
0.0
210
0.0
220
0.0
230
1.0
  2
SOLID
 70
     1
 71
     0
 91
        1
 92
        1
 93
        7
 72
     1
 10
558.6841158567234
 20
60.07579414014404
 11
564.0120567976367
 21
60.07579414014404
 72
     1
 10
564.0120567976367
 20
60.07579414014474
 11
568.4442559414787
 21
46.42798351709965
 72
     1
 10
568.4442559414788
 20
46.42798351709966
 11
564.500463230874
 21
46.42798351709966
 72
     1
 10
564.500463230874
 20
46.42798351709973
 11
561.348088039998
 21
56.17106736697938
 72
     1
 10
561.3480880399982
 20
56.17106736697932
 11
558.1957128491222
 21
46.42798351709966
 72
     1
 10
558.1957128491222
 20
46.42798351709966
 11
554.2519167128828
 21
46.42798351709966
 72
     1
 10
554.2519167128816
 20
46.4279835171
 11
558.6841158567234
 21
60.07579414014404
 97
        0
 75
     0
 76
     1
 98
        0
450
        0
451
        0
460
0.0
461
0.0
452
        0
462
0.0
453
        0
470

  0
ENDBLK
  5
225
330
21B
100
AcDbEntity
  8
0
100
AcDbBlockEnd
  0
BLOCK
  5
230
330
227
100
AcDbEntity
  8
0
100
AcDbBlockBegin
  2
POLYLINE_2
 70
     0
 10
578.883638
 20
60.075793
 30
0.0
  3
POLYLINE_2
  1
POLYLINE_2
  0
LINE
  5
228
330
227
100
AcDbEntity
  8
LIVELLO_1
 62
     7
100
AcDbLine
 10
578.883638
 20
60.075793
 30
0.0
 11
574.939842
 21
60.075793
 31
0.0
  0
LINE
  5
229
330
227
100
AcDbEntity
  8
LIVELLO_1
 62
     7
100
AcDbLine
 10
574.939842
 20
60.075793
 30
0.0
 11
571.7874669999999
 21
50.332706
 31
0.0
  0
LINE
  5
22A
330
227
100
AcDbEntity
  8
LIVELLO_1
 62
     7
100
AcDbLine
 10
571.7874669999999
 20
50.332706
 30
0.0
 11
568.6350919999999
 21
60.075793
 31
0.0
  0
LINE
  5
22B
330
227
100
AcDbEntity
  8
LIVELLO_1
 62
     7
100
AcDbLine
 10
568.6350919999999
 20
60.075793
 30
0.0
 11
564.6912949999999
 21
60.075793
 31
0.0
  0
LINE
  5
22C
330
227
100
AcDbEntity
  8
LIVELLO_1
 62
     7
100
AcDbLine
 10
564.6912949999999
 20
60.075793
 30
0.0
 11
569.1234950000001
 21
46.427983
 31
0.0
  0
LINE
  5
22D
330
227
100
AcDbEntity
  8
LIVELLO_1
 62
     7
100
AcDbLine
 10
569.1234950000001
 20
46.427983
 30
0.0
 11
574.4514360000001
 21
46.427983
 31
0.0
  0
LINE
  5
22E
330
227
100
AcDbEntity
  8
LIVELLO_1
 62
     7
100
AcDbLine
 10
574.4514360000001
 20
46.427983
 30
0.0
 11
578.883638
 21
60.075793
 31
0.0
  0
HATCH
  5
22F
330
227
100
AcDbEntity
  8
0
  6
Continuous
 62
     7
100
AcDbHatch
 10
0.0
 20
0.0
 30
0.0
210
0.0
220
0.0
230
1.0
  2
SOLID
 70
     1
 71
     0
 91
        1
 92
        1
 93
        7
 72
     1
 10
574.9398244496119
 20
60.07579414014404
 11
578.883620585853
 21
60.07579414014404
 72
     1
 10
578.883620585853
 20
60.07579414014474
 11
574.4514180163763
 21
46.42798351709965
 72
     1
 10
574.4514180163763
 20
46.42798351709966
 11
569.1234770754634
 21
46.42798351709966
 72
     1
 10
569.1234770754626
 20
46.42798351709945
 11
564.6912779316206
 21
60.07579414014404
 72
     1
 10
564.6912779316209
 20
60.07579414014404
 11
568.6350740678603
 21
60.07579414014404
 72
     1
 10
568.6350740678602
 20
60.075794140144
 11
571.7874492587363
 21
50.33270686462987
 72
     1
 10
571.7874492587359
 20
50.33270686462991
 11
574.9398244496119
 21
60.07579414014404
 97
        0
 75
     0
 76
     1
 98
        0
450
        0
451
        0
460
0.0
461
0.0
452
        0
462
0.0
453
        0
470

  0
ENDBLK
  5
231
330
227
100
AcDbEntity
  8
0
100
AcDbBlockEnd
  0
BLOCK
  5
24A
330
233
100
AcDbEntity
  8
0
100
AcDbBlockBegin
  2
GRUPPO1
 70
     0
 10
539.381204
 20
53.25041399999999
 30
0.0
  3
GRUPPO1
  1
GRUPPO1
  0
LINE
  5
234
330
233
100
AcDbEntity
  8
LIVELLO_1
 62
     7
100
AcDbLine
 10
534.108515
 20
56.566813
 30
0.0
 11
534.012865
 21
56.580202
 31
0.0
  0
LINE
  5
235
330
233
100
AcDbEntity
  8
LIVELLO_1
 62
     7
100
AcDbLine
 10
534.012865
 20
56.580202
 30
0.0
 11
533.763004
 21
56.912339
 31
0.0
  0
LINE
  5
236
330
233
100
AcDbEntity
  8
LIVELLO_1
 62
     7
100
AcDbLine
 10
544.9996679999999
 20
56.912415
 30
0.0
 11
544.9862469999999
 21
56.816841
 31
0.0
  0
LINE
  5
237
330
233
100
AcDbEntity
  8
LIVELLO_1
 62
     7
100
AcDbLine
 10
544.9862469999999
 20
56.816841
 30
0.0
 11
544.654157
 21
56.566889
 31
0.0
  0
LINE
  5
238
330
233
100
AcDbEntity
  8
LIVELLO_1
 62
     7
100
AcDbLine
 10
541.273959
 20
46.77052399999999
 30
0.0
 11
541.260539
 21
46.67496599999999
 31
0.0
  0
LINE
  5
239
330
233
100
AcDbEntity
  8
LIVELLO_1
 62
     7
100
AcDbLine
 10
541.260539
 20
46.67496599999999
 30
0.0
 11
540.928448
 21
46.42502899999999
 31
0.0
  0
LINE
  5
23A
330
233
100
AcDbEntity
  8
LIVELLO_1
 62
     7
100
AcDbLine
 10
540.928448
 20
46.42502899999999
 30
0.0
 11
540.711772
 21
46.42516599999999
 31
0.0
  0
LINE
  5
23B
330
233
100
AcDbEntity
  8
LIVELLO_1
 62
     7
100
AcDbLine
 10
540.711772
 20
46.42516599999999
 30
0.0
 11
540.1671529999999
 21
46.425502
 31
0.0
  0
LINE
  5
23C
330
233
100
AcDbEntity
  8
LIVELLO_1
 62
     7
100
AcDbLine
 10
540.1671529999999
 20
46.425502
 30
0.0
 11
539.4507549999999
 21
46.425959
 31
0.0
  0
LINE
  5
23D
330
233
100
AcDbEntity
  8
LIVELLO_1
 62
     7
100
AcDbLine
 10
539.4507549999999
 20
46.425959
 30
0.0
 11
538.719961
 21
46.426417
 31
0.0
  0
LINE
  5
23E
330
233
100
AcDbEntity
  8
LIVELLO_1
 62
     7
100
AcDbLine
 10
538.719961
 20
46.426417
 30
0.0
 11
538.131421
 21
46.426783
 31
0.0
  0
LINE
  5
23F
330
233
100
AcDbEntity
  8
LIVELLO_1
 62
     7
100
AcDbLine
 10
538.131421
 20
46.426783
 30
0.0
 11
537.833736
 21
46.42698099999999
 31
0.0
  0
LINE
  5
240
330
233
100
AcDbEntity
  8
LIVELLO_1
 62
     7
100
AcDbLine
 10
537.833736
 20
46.42698099999999
 30
0.0
 11
537.7383299999999
 21
46.440356
 31
0.0
  0
LINE
  5
241
330
233
100
AcDbEntity
  8
LIVELLO_1
 62
     7
100
AcDbLine
 10
537.7383299999999
 20
46.440356
 30
0.0
 11
537.488225
 21
46.772477
 31
0.0
  0
LINE
  5
242
330
233
100
AcDbEntity
  8
0
  6
Continuous
 62
     7
100
AcDbLine
 10
533.7605639999999
 20
60.07572299999999
 30
0.0
 11
545.0018639999999
 21
60.0758
 31
0.0
  0
LINE
  5
243
330
233
100
AcDbEntity
  8
0
  6
Continuous
 62
     7
100
AcDbLine
 10
533.7605639999999
 20
60.07572299999999
 30
0.0
 11
533.763004
 21
56.912339
 31
0.0
  0
LINE
  5
244
330
233
100
AcDbEntity
  8
0
  6
Continuous
 62
     7
100
AcDbLine
 10
534.108515
 20
56.566813
 30
0.0
 11
537.488225
 21
56.566813
 31
0.0
  0
LINE
  5
245
330
233
100
AcDbEntity
  8
0
  6
Continuous
 62
     7
100
AcDbLine
 10
541.273959
 20
56.566889
 30
0.0
 11
544.654157
 21
56.566889
 31
0.0
  0
LINE
  5
246
330
233
100
AcDbEntity
  8
0
  6
Continuous
 62
     7
100
AcDbLine
 10
544.9996679999999
 20
56.912415
 30
0.0
 11
545.0018639999999
 21
60.0758
 31
0.0
  0
LINE
  5
247
330
233
100
AcDbEntity
  8
0
  6
Continuous
 62
     7
100
AcDbLine
 10
537.488225
 20
46.772477
 30
0.0
 11
537.488225
 21
56.566813
 31
0.0
  0
LINE
  5
248
330
233
100
AcDbEntity
  8
0
  6
Continuous
 62
     7
100
AcDbLine
 10
541.273959
 20
46.77052399999999
 30
0.0
 11
541.273959
 21
56.566889
 31
0.0
  0
HATCH
  5
249
330
233
100
AcDbEntity
  8
0
  6
Continuous
 62
     7
100
AcDbHatch
 10
0.0
 20
0.0
 30
0.0
210
0.0
220
0.0
230
1.0
  2
SOLID
 70
     1
 71
     0
 91
        1
 92
        1
 93
       21
 72
     1
 10
544.9862299228717
 20
56.81684212509272
 11
544.9996501851593
 21
56.9124157429975
 72
     1
 10
544.9996501851592
 20
56.9124157429975
 11
545.0018462280791
 21
60.07580031864902
 72
     1
 10
545.0018462280791
 20
60.07580031864899
 11
533.7605465264712
 21
60.07572406715874
 72
     1
 10
533.7605465264711
 20
60.07572406715876
 11
533.7629865741596
 21
56.91233949150722
 72
     1
 10
533.7629865741597
 20
56.91233949150722
 11
534.0128474574774
 21
56.58020325018789
 72
     1
 10
534.0128474574774
 20
56.58020325018789
 11
534.1084973268724
 21
56.56681348849641
 72
     1
 10
534.1084973268724
 20
56.56681348849641
 11
537.4882073804208
 21
56.56681348849641
 72
     1
 10
537.4882073804208
 20
56.56681348849641
 11
537.4882073804208
 21
46.77247731655559
 72
     1
 10
537.4882073804208
 20
46.7724773165556
 11
537.7383122685073
 21
46.44035632553429
 72
     1
 10
537.7383122685075
 20
46.44035632553427
 11
537.8337181331336
 21
46.42698181414086
 72
     1
 10
537.8337181331334
 20
46.42698181414086
 11
538.1314039511486
 21
46.42678356026617
 72
     1
 10
538.1314039511486
 20
46.42678356026617
 11
538.719943453651
 21
46.42641755311287
 72
     1
 10
538.7199434536511
 20
46.42641755311287
 11
539.4507377364016
 21
46.42596004417125
 72
     1
 10
539.4507377364016
 20
46.42596004417125
 11
540.1671357377892
 21
46.42550253522965
 72
     1
 10
540.1671357377892
 20
46.42550253522965
 11
540.7117543818956
 21
46.42516702867245
 72
     1
 10
540.7117543818956
 20
46.42516702867245
 11
540.9284306166476
 21
46.42502977598996
 72
     1
 10
540.9284306166476
 20
46.42502977598996
 11
541.2605211070729
 21
46.67496691079793
 72
     1
 10
541.2605211070729
 20
46.67496691079793
 11
541.2739413693604
 21
46.77052527840465
 72
     1
 10
541.2739413693604
 20
46.77052527840468
 11
541.2739413693604
 21
56.56688973998669
 72
     1
 10
541.2739413693604
 20
56.56688973998668
 11
544.6541394324465
 21
56.56688973998668
 72
     1
 10
544.6541394324465
 20
56.56688973998668
 11
544.9862299228717
 21
56.81684212509271
 97
        0
 75
     0
 76
     1
 98
        0
450
        0
451
        0
460
0.0
461
0.0
452
        0
462
0.0
453
        0
470

  0
ENDBLK
  5
24B
330
233
100
AcDbEntity
  8
0
100
AcDbBlockEnd
  0
BLOCK
  5
263
330
262
100
AcDbEntity
  8
0
100
AcDbBlockBegin
  2
*D18
 70
     1
 10
0.0
 20
0.0
 30
0.0
  3
*D18
  1
*D19
  0
LINE
  5
46D
330
262
100
AcDbEntity
  8
0
  6
Continuous
 62
    70
440
 16777216
370
    -2
100
AcDbLine
 10
132.354125
 20
354.00257
 30
0.0
 11
132.354125
 21
392.0
 31
0.0
  0
LINE
  5
46E
330
262
100
AcDbEntity
  8
0
  6
Continuous
 62
    70
440
 16777216
370
    -2
100
AcDbLine
 10
172.354125
 20
354.00257
 30
0.0
 11
172.354125
 21
392.0
 31
0.0
  0
LINE
  5
46F
330
262
100
AcDbEntity
  8
0
  6
Continuous
 62
    70
440
 16777216
370
    -2
100
AcDbLine
 10
136.354125
 20
390.0
 30
0.0
 11
168.354125
 21
390.0
 31
0.0
  0
INSERT
  5
470
330
262
100
AcDbEntity
  8
0
  6
Continuous
 62
    70
440
 16777216
370
    -2
100
AcDbBlockReference
  2
_CLOSED
 10
132.354125
 20
390.0
 30
0.0
 41
4.0
 42
4.0
 43
4.0
 50
180.0
  0
INSERT
  5
471
330
262
100
AcDbEntity
  8
0
  6
Continuous
 62
    70
440
 16777216
370
    -2
100
AcDbBlockReference
  2
_CLOSED
 10
172.354125
 20
390.0
 30
0.0
 41
4.0
 42
4.0
 43
4.0
  0
MTEXT
  5
472
330
262
100
AcDbEntity
  8
0
  6
Continuous
 62
    70
440
 16777216
100
AcDbMText
 10
152.354126
 20
394.0420338983051
 30
0.0
 40
4.0
 41
0.0
 46
0.0
 71
     5
 72
     1
  1
TS
 73
     1
 44
1.0
  0
POINT
  5
473
330
262
100
AcDbEntity
  8
DEFPOINTS
  6
Continuous
 62
     0
440
 16777216
100
AcDbPoint
 10
132.354125
 20
352.80257
 30
0.0
  0
POINT
  5
474
330
262
100
AcDbEntity
  8
DEFPOINTS
  6
Continuous
 62
     0
440
 16777216
100
AcDbPoint
 10
172.354125
 20
352.80257
 30
0.0
  0
POINT
  5
475
330
262
100
AcDbEntity
  8
DEFPOINTS
  6
Continuous
 62
     0
440
 16777216
100
AcDbPoint
 10
172.354125
 20
390.0
 30
0.0
  0
ENDBLK
  5
264
330
262
100
AcDbEntity
  8
0
100
AcDbBlockEnd
  0
BLOCK
  5
277
330
276
100
AcDbEntity
  8
0
100
AcDbBlockBegin
  2
*D19
 70
     1
 10
0.0
 20
0.0
 30
0.0
  3
*D19
  1
*D20
  0
LINE
  5
279
330
276
100
AcDbEntity
  8
0
  6
Continuous
 62
    70
440
 16777216
100
AcDbLine
 10
132.354125
 20
351.60257
 30
0.0
 11
132.354125
 21
278.0
 31
0.0
  0
LINE
  5
27A
330
276
100
AcDbEntity
  8
0
  6
Continuous
 62
    70
440
 16777216
100
AcDbLine
 10
136.354125
 20
323.9525700000001
 30
0.0
 11
136.354125
 21
278.0
 31
0.0
  0
LINE
  5
27B
330
276
100
AcDbEntity
  8
0
  6
Continuous
 62
    70
440
 16777216
100
AcDbLine
 10
132.354125
 20
280.0
 30
0.0
 11
117.877934
 21
280.0
 31
0.0
  0
LINE
  5
27C
330
276
100
AcDbEntity
  8
0
  6
Continuous
 62
    70
440
 16777216
100
AcDbLine
 10
132.354125
 20
280.0
 30
0.0
 11
136.354125
 21
280.0
 31
0.0
  0
LINE
  5
27D
330
276
100
AcDbEntity
  8
0
  6
Continuous
 62
    70
440
 16777216
100
AcDbLine
 10
128.354125
 20
280.0
 30
0.0
 11
124.354125
 21
280.0
 31
0.0
  0
LINE
  5
27E
330
276
100
AcDbEntity
  8
0
  6
Continuous
 62
    70
440
 16777216
100
AcDbLine
 10
140.354125
 20
280.0
 30
0.0
 11
144.354125
 21
280.0
 31
0.0
  0
INSERT
  5
27F
330
276
100
AcDbEntity
  8
0
 62
    70
440
 16777216
100
AcDbBlockReference
  2
_CLOSED
 10
132.354125
 20
280.0
 30
0.0
 41
4.0
 42
4.0
 43
4.0
  0
INSERT
  5
280
330
276
100
AcDbEntity
  8
0
 62
    70
440
 16777216
100
AcDbBlockReference
  2
_CLOSED
 10
136.354125
 20
280.0
 30
0.0
 41
4.0
 42
4.0
 43
4.0
 50
180.0
  0
MTEXT
  5
281
330
276
100
AcDbEntity
  8
0
 62
    70
440
 16777216
100
AcDbMText
 10
121.11603
 20
284.0
 30
0.0
 40
4.0
 41
0.0
 46
0.0
 71
     5
 72
     1
  1
F
 73
     1
 44
1.0
  0
POINT
  5
282
330
276
100
AcDbEntity
  8
DEFPOINTS
 62
     0
440
 16777216
100
AcDbPoint
 10
132.354125
 20
352.80257
 30
0.0
  0
POINT
  5
283
330
276
100
AcDbEntity
  8
DEFPOINTS
 62
     0
440
 16777216
100
AcDbPoint
 10
136.354125
 20
325.15257
 30
0.0
  0
POINT
  5
284
330
276
100
AcDbEntity
  8
DEFPOINTS
 62
     0
440
 16777216
100
AcDbPoint
 10
136.354125
 20
280.0
 30
0.0
  0
ENDBLK
  5
278
330
276
100
AcDbEntity
  8
0
100
AcDbBlockEnd
  0
BLOCK
  5
287
330
286
100
AcDbEntity
  8
0
100
AcDbBlockBegin
  2
*D20
 70
     1
 10
0.0
 20
0.0
 30
0.0
  3
*D20
  1
*D21
  0
LINE
  5
289
330
286
100
AcDbEntity
  8
0
  6
Continuous
 62
    70
440
 16777216
100
AcDbLine
 10
172.354125
 20
351.60257
 30
0.0
 11
172.354125
 21
278.0
 31
0.0
  0
LINE
  5
28A
330
286
100
AcDbEntity
  8
0
  6
Continuous
 62
    70
440
 16777216
100
AcDbLine
 10
167.554125
 20
323.9525700000001
 30
0.0
 11
167.554125
 21
278.0
 31
0.0
  0
LINE
  5
28B
330
286
100
AcDbEntity
  8
0
  6
Continuous
 62
    70
440
 16777216
100
AcDbLine
 10
172.354125
 20
280.0
 30
0.0
 11
187.211268
 21
280.0
 31
0.0
  0
LINE
  5
28C
330
286
100
AcDbEntity
  8
0
  6
Continuous
 62
    70
440
 16777216
100
AcDbLine
 10
172.354125
 20
280.0
 30
0.0
 11
167.554125
 21
280.0
 31
0.0
  0
LINE
  5
28D
330
286
100
AcDbEntity
  8
0
  6
Continuous
 62
    70
440
 16777216
100
AcDbLine
 10
176.354125
 20
280.0
 30
0.0
 11
180.354125
 21
280.0
 31
0.0
  0
LINE
  5
28E
330
286
100
AcDbEntity
  8
0
  6
Continuous
 62
    70
440
 16777216
100
AcDbLine
 10
163.554125
 20
280.0
 30
0.0
 11
159.554125
 21
280.0
 31
0.0
  0
INSERT
  5
28F
330
286
100
AcDbEntity
  8
0
 62
    70
440
 16777216
100
AcDbBlockReference
  2
_CLOSED
 10
172.354125
 20
280.0
 30
0.0
 41
4.0
 42
4.0
 43
4.0
 50
180.0
  0
INSERT
  5
290
330
286
100
AcDbEntity
  8
0
 62
    70
440
 16777216
100
AcDbBlockReference
  2
_CLOSED
 10
167.554125
 20
280.0
 30
0.0
 41
4.0
 42
4.0
 43
4.0
  0
MTEXT
  5
291
330
286
100
AcDbEntity
  8
0
 62
    70
440
 16777216
100
AcDbMText
 10
183.782696
 20
284.0
 30
0.0
 40
4.0
 41
0.0
 46
0.0
 71
     5
 72
     1
  1
G
 73
     1
 44
1.0
  0
POINT
  5
292
330
286
100
AcDbEntity
  8
DEFPOINTS
 62
     0
440
 16777216
100
AcDbPoint
 10
172.354125
 20
352.80257
 30
0.0
  0
POINT
  5
293
330
286
100
AcDbEntity
  8
DEFPOINTS
 62
     0
440
 16777216
100
AcDbPoint
 10
167.554125
 20
325.15257
 30
0.0
  0
POINT
  5
294
330
286
100
AcDbEntity
  8
DEFPOINTS
 62
     0
440
 16777216
100
AcDbPoint
 10
167.554125
 20
280.0
 30
0.0
  0
ENDBLK
  5
288
330
286
100
AcDbEntity
  8
0
100
AcDbBlockEnd
  0
BLOCK
  5
297
330
296
100
AcDbEntity
  8
0
100
AcDbBlockBegin
  2
*D21
 70
     1
 10
0.0
 20
0.0
 30
0.0
  3
*D21
  1
*D22
  0
LINE
  5
299
330
296
100
AcDbEntity
  8
0
  6
Continuous
 62
    70
440
 16777216
100
AcDbLine
 10
136.354125
 20
164.95257
 30
0.0
 11
136.354125
 21
108.0
 31
0.0
  0
LINE
  5
29A
330
296
100
AcDbEntity
  8
0
  6
Continuous
 62
    70
440
 16777216
100
AcDbLine
 10
167.554125
 20
164.95257
 30
0.0
 11
167.554125
 21
108.0
 31
0.0
  0
LINE
  5
29B
330
296
100
AcDbEntity
  8
0
  6
Continuous
 62
    70
440
 16777216
100
AcDbLine
 10
140.354125
 20
110.0
 30
0.0
 11
163.554125
 21
110.0
 31
0.0
  0
INSERT
  5
29C
330
296
100
AcDbEntity
  8
0
 62
    70
440
 16777216
100
AcDbBlockReference
  2
_CLOSED
 10
136.354125
 20
110.0
 30
0.0
 41
4.0
 42
4.0
 43
4.0
 50
180.0
  0
INSERT
  5
29D
330
296
100
AcDbEntity
  8
0
 62
    70
440
 16777216
100
AcDbBlockReference
  2
_CLOSED
 10
167.554125
 20
110.0
 30
0.0
 41
4.0
 42
4.0
 43
4.0
  0
MTEXT
  5
29E
330
296
100
AcDbEntity
  8
0
 62
    70
440
 16777216
100
AcDbMText
 10
151.954132
 20
114.8
 30
0.0
 40
4.0
 41
0.0
 46
0.0
 71
     5
 72
     1
  1
31.2{\H2.400000;\S+0.2^  0;}
 73
     1
 44
1.0
  0
POINT
  5
29F
330
296
100
AcDbEntity
  8
DEFPOINTS
 62
     0
440
 16777216
100
AcDbPoint
 10
136.354125
 20
166.15257
 30
0.0
  0
POINT
  5
2A0
330
296
100
AcDbEntity
  8
DEFPOINTS
 62
     0
440
 16777216
100
AcDbPoint
 10
167.554125
 20
166.15257
 30
0.0
  0
POINT
  5
2A1
330
296
100
AcDbEntity
  8
DEFPOINTS
 62
     0
440
 16777216
100
AcDbPoint
 10
167.554125
 20
110.0
 30
0.0
  0
ENDBLK
  5
298
330
296
100
AcDbEntity
  8
0
100
AcDbBlockEnd
  0
BLOCK
  5
2A4
330
2A3
100
AcDbEntity
  8
0
100
AcDbBlockBegin
  2
*D22
 70
     1
 10
0.0
 20
0.0
 30
0.0
  3
*D22
  1
*D23
  0
LINE
  5
2A6
330
2A3
100
AcDbEntity
  8
0
  6
Continuous
 62
    70
440
 16777216
100
AcDbLine
 10
153.154125
 20
325.75257
 30
0.0
 11
202.000015
 21
325.75257
 31
0.0
  0
LINE
  5
2A7
330
2A3
100
AcDbEntity
  8
0
  6
Continuous
 62
    70
440
 16777216
100
AcDbLine
 10
153.154125
 20
165.55257
 30
0.0
 11
202.000015
 21
165.55257
 31
0.0
  0
LINE
  5
2A8
330
2A3
100
AcDbEntity
  8
0
  6
Continuous
 62
    70
440
 16777216
100
AcDbLine
 10
200.000015
 20
321.75257
 30
0.0
 11
200.000015
 21
169.55257
 31
0.0
  0
INSERT
  5
2A9
330
2A3
100
AcDbEntity
  8
0
 62
    70
440
 16777216
100
AcDbBlockReference
  2
_CLOSED
 10
200.000015
 20
325.75257
 30
0.0
 41
4.0
 42
4.0
 43
4.0
 50
90.0
  0
INSERT
  5
2AA
330
2A3
100
AcDbEntity
  8
0
 62
    70
440
 16777216
100
AcDbBlockReference
  2
_CLOSED
 10
200.000015
 20
165.55257
 30
0.0
 41
4.0
 42
4.0
 43
4.0
 50
270.0
  0
MTEXT
  5
2AB
330
2A3
100
AcDbEntity
  8
0
 62
    70
440
 16777216
100
AcDbMText
 10
195.200015
 20
245.652573
 30
0.0
 40
4.0
 41
0.0
 46
0.0
 71
     5
 72
     1
  1
160.2{\H2.400000;\S+0.2^  0;}
 11
0.0
 21
1.0
 31
0.0
 73
     1
 44
1.0
  0
POINT
  5
2AC
330
2A3
100
AcDbEntity
  8
DEFPOINTS
 62
     0
440
 16777216
100
AcDbPoint
 10
151.954125
 20
325.75257
 30
0.0
  0
POINT
  5
2AD
330
2A3
100
AcDbEntity
  8
DEFPOINTS
 62
     0
440
 16777216
100
AcDbPoint
 10
151.954125
 20
165.55257
 30
0.0
  0
POINT
  5
2AE
330
2A3
100
AcDbEntity
  8
DEFPOINTS
 62
     0
440
 16777216
100
AcDbPoint
 10
200.000015
 20
165.55257
 30
0.0
  0
ENDBLK
  5
2A5
330
2A3
100
AcDbEntity
  8
0
100
AcDbBlockEnd
  0
BLOCK
  5
2B1
330
2B0
100
AcDbEntity
  8
0
100
AcDbBlockBegin
  2
*D23
 70
     1
 10
0.0
 20
0.0
 30
0.0
  3
*D23
  1
*D24
  0
LINE
  5
2B3
330
2B0
100
AcDbEntity
  8
0
  6
Continuous
 62
    70
440
 16777216
100
AcDbLine
 10
153.154125
 20
340.75257
 30
0.0
 11
222.000015
 21
340.75257
 31
0.0
  0
LINE
  5
2B4
330
2B0
100
AcDbEntity
  8
0
  6
Continuous
 62
    70
440
 16777216
100
AcDbLine
 10
153.154125
 20
150.55257
 30
0.0
 11
222.000015
 21
150.55257
 31
0.0
  0
LINE
  5
2B5
330
2B0
100
AcDbEntity
  8
0
  6
Continuous
 62
    70
440
 16777216
100
AcDbLine
 10
220.000015
 20
336.75257
 30
0.0
 11
220.000015
 21
154.55257
 31
0.0
  0
INSERT
  5
2B6
330
2B0
100
AcDbEntity
  8
0
 62
    70
440
 16777216
100
AcDbBlockReference
  2
_CLOSED
 10
220.000015
 20
340.75257
 30
0.0
 41
4.0
 42
4.0
 43
4.0
 50
90.0
  0
INSERT
  5
2B7
330
2B0
100
AcDbEntity
  8
0
 62
    70
440
 16777216
100
AcDbBlockReference
  2
_CLOSED
 10
220.000015
 20
150.55257
 30
0.0
 41
4.0
 42
4.0
 43
4.0
 50
270.0
  0
MTEXT
  5
2B8
330
2B0
100
AcDbEntity
  8
0
 62
    70
440
 16777216
100
AcDbMText
 10
215.200015
 20
245.652573
 30
0.0
 40
4.0
 41
0.0
 46
0.0
 71
     5
 72
     1
  1
190.2{\H2.400000;\S+0.2^  0;}
 11
0.0
 21
1.0
 31
0.0
 73
     1
 44
1.0
  0
POINT
  5
2B9
330
2B0
100
AcDbEntity
  8
DEFPOINTS
 62
     0
440
 16777216
100
AcDbPoint
 10
151.954125
 20
340.75257
 30
0.0
  0
POINT
  5
2BA
330
2B0
100
AcDbEntity
  8
DEFPOINTS
 62
     0
440
 16777216
100
AcDbPoint
 10
151.954125
 20
150.55257
 30
0.0
  0
POINT
  5
2BB
330
2B0
100
AcDbEntity
  8
DEFPOINTS
 62
     0
440
 16777216
100
AcDbPoint
 10
220.000015
 20
150.55257
 30
0.0
  0
ENDBLK
  5
2B2
330
2B0
100
AcDbEntity
  8
0
100
AcDbBlockEnd
  0
BLOCK
  5
2BE
330
2BD
100
AcDbEntity
  8
0
100
AcDbBlockBegin
  2
*D24
 70
     1
 10
0.0
 20
0.0
 30
0.0
  3
*D24
  1
*D25
  0
LINE
  5
2C0
330
2BD
100
AcDbEntity
  8
0
  6
Continuous
 62
    70
440
 16777216
100
AcDbLine
 10
563.1597789999999
 20
148.783767
 30
0.0
 11
581.244385
 21
148.783767
 31
0.0
  0
LINE
  5
2C1
330
2BD
100
AcDbEntity
  8
0
  6
Continuous
 62
    70
440
 16777216
100
AcDbLine
 10
573.329779
 20
144.783767
 30
0.0
 11
581.244385
 21
144.783767
 31
0.0
  0
LINE
  5
2C2
330
2BD
100
AcDbEntity
  8
0
  6
Continuous
 62
    70
440
 16777216
100
AcDbLine
 10
579.2443849999999
 20
144.783767
 30
0.0
 11
579.2443849999999
 21
130.307576
 31
0.0
  0
LINE
  5
2C3
330
2BD
100
AcDbEntity
  8
0
  6
Continuous
 62
    70
440
 16777216
100
AcDbLine
 10
579.2443849999999
 20
148.783767
 30
0.0
 11
579.2443849999999
 21
144.783767
 31
0.0
  0
LINE
  5
2C4
330
2BD
100
AcDbEntity
  8
0
  6
Continuous
 62
    70
440
 16777216
100
AcDbLine
 10
579.2443849999999
 20
152.783767
 30
0.0
 11
579.2443849999999
 21
156.783767
 31
0.0
  0
LINE
  5
2C5
330
2BD
100
AcDbEntity
  8
0
  6
Continuous
 62
    70
440
 16777216
100
AcDbLine
 10
579.2443849999999
 20
140.783767
 30
0.0
 11
579.2443849999999
 21
136.783767
 31
0.0
  0
INSERT
  5
2C6
330
2BD
100
AcDbEntity
  8
0
 62
    70
440
 16777216
100
AcDbBlockReference
  2
_CLOSED
 10
579.2443849999999
 20
148.783767
 30
0.0
 41
4.0
 42
4.0
 43
4.0
 50
270.0
  0
INSERT
  5
2C7
330
2BD
100
AcDbEntity
  8
0
 62
    70
440
 16777216
100
AcDbBlockReference
  2
_CLOSED
 10
579.2443849999999
 20
144.783767
 30
0.0
 41
4.0
 42
4.0
 43
4.0
 50
90.0
  0
MTEXT
  5
2C8
330
2BD
100
AcDbEntity
  8
0
 62
    70
440
 16777216
100
AcDbMText
 10
575.2443849999999
 20
133.545672
 30
0.0
 40
4.0
 41
0.0
 46
0.0
 71
     5
 72
     1
  1
F
 11
0.0
 21
1.0
 31
0.0
 73
     1
 44
1.0
  0
POINT
  5
2C9
330
2BD
100
AcDbEntity
  8
DEFPOINTS
 62
     0
440
 16777216
100
AcDbPoint
 10
561.959779
 20
148.783767
 30
0.0
  0
POINT
  5
2CA
330
2BD
100
AcDbEntity
  8
DEFPOINTS
 62
     0
440
 16777216
100
AcDbPoint
 10
572.129779
 20
144.783767
 30
0.0
  0
POINT
  5
2CB
330
2BD
100
AcDbEntity
  8
DEFPOINTS
 62
     0
440
 16777216
100
AcDbPoint
 10
579.2443849999999
 20
144.783767
 30
0.0
  0
ENDBLK
  5
2BF
330
2BD
100
AcDbEntity
  8
0
100
AcDbBlockEnd
  0
BLOCK
  5
2CE
330
2CD
100
AcDbEntity
  8
0
100
AcDbBlockBegin
  2
*D25
 70
     1
 10
0.0
 20
0.0
 30
0.0
  3
*D25
  1
*D26
  0
LINE
  5
2D0
330
2CD
100
AcDbEntity
  8
0
  6
Continuous
 62
    70
440
 16777216
100
AcDbLine
 10
492.759779
 20
179.783767
 30
0.0
 11
480.010437
 21
179.783767
 31
0.0
  0
LINE
  5
2D1
330
2CD
100
AcDbEntity
  8
0
  6
Continuous
 62
    70
440
 16777216
100
AcDbLine
 10
492.759779
 20
148.783767
 30
0.0
 11
480.010437
 21
148.783767
 31
0.0
  0
LINE
  5
2D2
330
2CD
100
AcDbEntity
  8
0
  6
Continuous
 62
    70
440
 16777216
100
AcDbLine
 10
482.010437
 20
175.7837669999999
 30
0.0
 11
482.010437
 21
152.783767
 31
0.0
  0
INSERT
  5
2D3
330
2CD
100
AcDbEntity
  8
0
 62
    70
440
 16777216
100
AcDbBlockReference
  2
_CLOSED
 10
482.010437
 20
179.783767
 30
0.0
 41
4.0
 42
4.0
 43
4.0
 50
90.0
  0
INSERT
  5
2D4
330
2CD
100
AcDbEntity
  8
0
 62
    70
440
 16777216
100
AcDbBlockReference
  2
_CLOSED
 10
482.010437
 20
148.783767
 30
0.0
 41
4.0
 42
4.0
 43
4.0
 50
270.0
  0
MTEXT
  5
2D5
330
2CD
100
AcDbEntity
  8
0
 62
    70
440
 16777216
100
AcDbMText
 10
478.010437
 20
164.2837679999999
 30
0.0
 40
4.0
 41
0.0
 46
0.0
 71
     5
 72
     1
  1
31
 11
0.0
 21
1.0
 31
0.0
 73
     1
 44
1.0
  0
POINT
  5
2D6
330
2CD
100
AcDbEntity
  8
DEFPOINTS
 62
     0
440
 16777216
100
AcDbPoint
 10
493.959779
 20
179.783767
 30
0.0
  0
POINT
  5
2D7
330
2CD
100
AcDbEntity
  8
DEFPOINTS
 62
     0
440
 16777216
100
AcDbPoint
 10
493.959779
 20
148.783767
 30
0.0
  0
POINT
  5
2D8
330
2CD
100
AcDbEntity
  8
DEFPOINTS
 62
     0
440
 16777216
100
AcDbPoint
 10
482.010437
 20
148.783767
 30
0.0
  0
ENDBLK
  5
2CF
330
2CD
100
AcDbEntity
  8
0
100
AcDbBlockEnd
  0
BLOCK
  5
2DB
330
2DA
100
AcDbEntity
  8
0
100
AcDbBlockBegin
  2
*D26
 70
     1
 10
0.0
 20
0.0
 30
0.0
  3
*D26
  1
*D27
  0
LINE
  5
2DD
330
2DA
100
AcDbEntity
  8
0
  6
Continuous
 62
    70
440
 16777216
100
AcDbLine
 10
563.1597789999999
 20
179.783767
 30
0.0
 11
581.244385
 21
179.783767
 31
0.0
  0
LINE
  5
2DE
330
2DA
100
AcDbEntity
  8
0
  6
Continuous
 62
    70
440
 16777216
100
AcDbLine
 10
563.1597789999999
 20
148.783767
 30
0.0
 11
581.244385
 21
148.783767
 31
0.0
  0
LINE
  5
2DF
330
2DA
100
AcDbEntity
  8
0
  6
Continuous
 62
    70
440
 16777216
100
AcDbLine
 10
579.2443849999999
 20
175.7837669999999
 30
0.0
 11
579.2443849999999
 21
152.783767
 31
0.0
  0
INSERT
  5
2E0
330
2DA
100
AcDbEntity
  8
0
 62
    70
440
 16777216
100
AcDbBlockReference
  2
_CLOSED
 10
579.2443849999999
 20
179.783767
 30
0.0
 41
4.0
 42
4.0
 43
4.0
 50
90.0
  0
INSERT
  5
2E1
330
2DA
100
AcDbEntity
  8
0
 62
    70
440
 16777216
100
AcDbBlockReference
  2
_CLOSED
 10
579.2443849999999
 20
148.783767
 30
0.0
 41
4.0
 42
4.0
 43
4.0
 50
270.0
  0
MTEXT
  5
2E2
330
2DA
100
AcDbEntity
  8
0
 62
    70
440
 16777216
100
AcDbMText
 10
575.2443849999999
 20
164.2837679999999
 30
0.0
 40
4.0
 41
0.0
 46
0.0
 71
     5
 72
     1
  1
31
 11
0.0
 21
1.0
 31
0.0
 73
     1
 44
1.0
  0
POINT
  5
2E3
330
2DA
100
AcDbEntity
  8
DEFPOINTS
 62
     0
440
 16777216
100
AcDbPoint
 10
561.959779
 20
179.783767
 30
0.0
  0
POINT
  5
2E4
330
2DA
100
AcDbEntity
  8
DEFPOINTS
 62
     0
440
 16777216
100
AcDbPoint
 10
561.959779
 20
148.783767
 30
0.0
  0
POINT
  5
2E5
330
2DA
100
AcDbEntity
  8
DEFPOINTS
 62
     0
440
 16777216
100
AcDbPoint
 10
579.2443849999999
 20
148.783767
 30
0.0
  0
ENDBLK
  5
2DC
330
2DA
100
AcDbEntity
  8
0
100
AcDbBlockEnd
  0
BLOCK
  5
2E8
330
2E7
100
AcDbEntity
  8
0
100
AcDbBlockBegin
  2
*D27
 70
     1
 10
0.0
 20
0.0
 30
0.0
  3
*D27
  1
*D28
  0
LINE
  5
2EA
330
2E7
100
AcDbEntity
  8
0
  6
Continuous
 62
    70
440
 16777216
100
AcDbLine
 10
529.459779
 20
143.583767
 30
0.0
 11
529.459779
 21
124.034866
 31
0.0
  0
LINE
  5
2EB
330
2E7
100
AcDbEntity
  8
0
  6
Continuous
 62
    70
440
 16777216
100
AcDbLine
 10
493.959779
 20
147.583767
 30
0.0
 11
493.959779
 21
124.034866
 31
0.0
  0
LINE
  5
2EC
330
2E7
100
AcDbEntity
  8
0
  6
Continuous
 62
    70
440
 16777216
100
AcDbLine
 10
525.459779
 20
126.034866
 30
0.0
 11
497.959779
 21
126.034866
 31
0.0
  0
INSERT
  5
2ED
330
2E7
100
AcDbEntity
  8
0
 62
    70
440
 16777216
100
AcDbBlockReference
  2
_CLOSED
 10
529.459779
 20
126.034866
 30
0.0
 41
4.0
 42
4.0
 43
4.0
  0
INSERT
  5
2EE
330
2E7
100
AcDbEntity
  8
0
 62
    70
440
 16777216
100
AcDbBlockReference
  2
_CLOSED
 10
493.959779
 20
126.034866
 30
0.0
 41
4.0
 42
4.0
 43
4.0
 50
180.0
  0
MTEXT
  5
2EF
330
2E7
100
AcDbEntity
  8
0
 62
    70
440
 16777216
100
AcDbMText
 10
511.709778
 20
130.034866
 30
0.0
 40
4.0
 41
0.0
 46
0.0
 71
     5
 72
     1
  1
35.5
 73
     1
 44
1.0
  0
POINT
  5
2F0
330
2E7
100
AcDbEntity
  8
DEFPOINTS
 62
     0
440
 16777216
100
AcDbPoint
 10
529.459779
 20
144.783767
 30
0.0
  0
POINT
  5
2F1
330
2E7
100
AcDbEntity
  8
DEFPOINTS
 62
     0
440
 16777216
100
AcDbPoint
 10
493.959779
 20
148.783767
 30
0.0
  0
POINT
  5
2F2
330
2E7
100
AcDbEntity
  8
DEFPOINTS
 62
     0
440
 16777216
100
AcDbPoint
 10
493.959779
 20
126.034866
 30
0.0
  0
ENDBLK
  5
2E9
330
2E7
100
AcDbEntity
  8
0
100
AcDbBlockEnd
  0
BLOCK
  5
2F5
330
2F4
100
AcDbEntity
  8
0
100
AcDbBlockBegin
  2
*D28
 70
     1
 10
0.0
 20
0.0
 30
0.0
  3
*D28
  1
*D29
  0
LINE
  5
2F7
330
2F4
100
AcDbEntity
  8
0
  6
Continuous
 62
    70
440
 16777216
100
AcDbLine
 10
532.459779
 20
143.583767
 30
0.0
 11
532.459779
 21
124.034866
 31
0.0
  0
LINE
  5
2F8
330
2F4
100
AcDbEntity
  8
0
  6
Continuous
 62
    70
440
 16777216
100
AcDbLine
 10
561.959779
 20
147.583767
 30
0.0
 11
561.959779
 21
124.034866
 31
0.0
  0
LINE
  5
2F9
330
2F4
100
AcDbEntity
  8
0
  6
Continuous
 62
    70
440
 16777216
100
AcDbLine
 10
536.459779
 20
126.034866
 30
0.0
 11
557.959779
 21
126.034866
 31
0.0
  0
INSERT
  5
2FA
330
2F4
100
AcDbEntity
  8
0
 62
    70
440
 16777216
100
AcDbBlockReference
  2
_CLOSED
 10
532.459779
 20
126.034866
 30
0.0
 41
4.0
 42
4.0
 43
4.0
 50
180.0
  0
INSERT
  5
2FB
330
2F4
100
AcDbEntity
  8
0
 62
    70
440
 16777216
100
AcDbBlockReference
  2
_CLOSED
 10
561.959779
 20
126.034866
 30
0.0
 41
4.0
 42
4.0
 43
4.0
  0
MTEXT
  5
2FC
330
2F4
100
AcDbEntity
  8
0
 62
    70
440
 16777216
100
AcDbMText
 10
547.209779
 20
130.034866
 30
0.0
 40
4.0
 41
0.0
 46
0.0
 71
     5
 72
     1
  1
29.5
 73
     1
 44
1.0
  0
POINT
  5
2FD
330
2F4
100
AcDbEntity
  8
DEFPOINTS
 62
     0
440
 16777216
100
AcDbPoint
 10
532.459779
 20
144.783767
 30
0.0
  0
POINT
  5
2FE
330
2F4
100
AcDbEntity
  8
DEFPOINTS
 62
     0
440
 16777216
100
AcDbPoint
 10
561.959779
 20
148.783767
 30
0.0
  0
POINT
  5
2FF
330
2F4
100
AcDbEntity
  8
DEFPOINTS
 62
     0
440
 16777216
100
AcDbPoint
 10
561.959779
 20
126.034866
 30
0.0
  0
ENDBLK
  5
2F6
330
2F4
100
AcDbEntity
  8
0
100
AcDbBlockEnd
  0
BLOCK
  5
32B
330
32A
100
AcDbEntity
  8
0
100
AcDbBlockBegin
  2
*D29
 70
     1
 10
0.0
 20
0.0
 30
0.0
  3
*D29
  1
*D30
  0
LINE
  5
32D
330
32A
100
AcDbEntity
  8
0
  6
Continuous
 62
    70
440
 16777216
100
AcDbLine
 10
162.404125
 20
331.15257
 30
0.0
 11
212.422592
 21
331.15257
 31
0.0
  0
LINE
  5
32E
330
32A
100
AcDbEntity
  8
0
  6
Continuous
 62
    70
440
 16777216
100
AcDbLine
 10
162.404125
 20
160.15257
 30
0.0
 11
212.422592
 21
160.15257
 31
0.0
  0
LINE
  5
32F
330
32A
100
AcDbEntity
  8
0
  6
Continuous
 62
    70
440
 16777216
100
AcDbLine
 10
210.422592
 20
327.15257
 30
0.0
 11
210.422592
 21
164.15257
 31
0.0
  0
INSERT
  5
330
330
32A
100
AcDbEntity
  8
0
 62
    70
440
 16777216
100
AcDbBlockReference
  2
_CLOSED
 10
210.422592
 20
331.15257
 30
0.0
 41
4.0
 42
4.0
 43
4.0
 50
90.0
  0
INSERT
  5
331
330
32A
100
AcDbEntity
  8
0
 62
    70
440
 16777216
100
AcDbBlockReference
  2
_CLOSED
 10
210.422592
 20
160.15257
 30
0.0
 41
4.0
 42
4.0
 43
4.0
 50
270.0
  0
MTEXT
  5
332
330
32A
100
AcDbEntity
  8
0
 62
    70
440
 16777216
100
AcDbMText
 10
206.422592
 20
245.652573
 30
0.0
 40
4.0
 41
0.0
 46
0.0
 71
     5
 72
     1
  1
171
 11
0.0
 21
1.0
 31
0.0
 73
     1
 44
1.0
  0
POINT
  5
333
330
32A
100
AcDbEntity
  8
DEFPOINTS
 62
     0
440
 16777216
100
AcDbPoint
 10
161.204125
 20
331.15257
 30
0.0
  0
POINT
  5
334
330
32A
100
AcDbEntity
  8
DEFPOINTS
 62
     0
440
 16777216
100
AcDbPoint
 10
161.204125
 20
160.15257
 30
0.0
  0
POINT
  5
335
330
32A
100
AcDbEntity
  8
DEFPOINTS
 62
     0
440
 16777216
100
AcDbPoint
 10
210.422592
 20
160.15257
 30
0.0
  0
ENDBLK
  5
32C
330
32A
100
AcDbEntity
  8
0
100
AcDbBlockEnd
  0
BLOCK
  5
338
330
337
100
AcDbEntity
  8
0
100
AcDbBlockBegin
  2
*D30
 70
     1
 10
0.0
 20
0.0
 30
0.0
  3
*D30
  1
*D31
  0
LINE
  5
33A
330
337
100
AcDbEntity
  8
0
  6
Continuous
 62
    70
440
 16777216
100
AcDbLine
 10
144.954125
 20
334.60257
 30
0.0
 11
144.954125
 21
372.811096
 31
0.0
  0
LINE
  5
33B
330
337
100
AcDbEntity
  8
0
  6
Continuous
 62
    70
440
 16777216
100
AcDbLine
 10
158.954125
 20
334.60257
 30
0.0
 11
158.954125
 21
372.811096
 31
0.0
  0
LINE
  5
33C
330
337
100
AcDbEntity
  8
0
  6
Continuous
 62
    70
440
 16777216
100
AcDbLine
 10
148.954125
 20
370.811096
 30
0.0
 11
154.954125
 21
370.811096
 31
0.0
  0
INSERT
  5
33D
330
337
100
AcDbEntity
  8
0
 62
    70
440
 16777216
100
AcDbBlockReference
  2
_CLOSED
 10
144.954125
 20
370.811096
 30
0.0
 41
4.0
 42
4.0
 43
4.0
 50
180.0
  0
INSERT
  5
33E
330
337
100
AcDbEntity
  8
0
 62
    70
440
 16777216
100
AcDbBlockReference
  2
_CLOSED
 10
158.954125
 20
370.811096
 30
0.0
 41
4.0
 42
4.0
 43
4.0
  0
MTEXT
  5
33F
330
337
100
AcDbEntity
  8
0
 62
    70
440
 16777216
100
AcDbMText
 10
151.954132
 20
374.811096
 30
0.0
 40
4.0
 41
0.0
 46
0.0
 71
     5
 72
     1
  1
14
 73
     1
 44
1.0
  0
POINT
  5
340
330
337
100
AcDbEntity
  8
DEFPOINTS
 62
     0
440
 16777216
100
AcDbPoint
 10
144.954125
 20
333.40257
 30
0.0
  0
POINT
  5
341
330
337
100
AcDbEntity
  8
DEFPOINTS
 62
     0
440
 16777216
100
AcDbPoint
 10
158.954125
 20
333.40257
 30
0.0
  0
POINT
  5
342
330
337
100
AcDbEntity
  8
DEFPOINTS
 62
     0
440
 16777216
100
AcDbPoint
 10
158.954125
 20
370.811096
 30
0.0
  0
ENDBLK
  5
339
330
337
100
AcDbEntity
  8
0
100
AcDbBlockEnd
  0
BLOCK
  5
345
330
344
100
AcDbEntity
  8
0
100
AcDbBlockBegin
  2
*D31
 70
     1
 10
0.0
 20
0.0
 30
0.0
  3
*D31
  1
*D32
  0
LINE
  5
347
330
344
100
AcDbEntity
  8
0
  6
Continuous
 62
    70
440
 16777216
100
AcDbLine
 10
349.654125
 20
334.60257
 30
0.0
 11
349.654125
 21
372.0
 31
0.0
  0
LINE
  5
348
330
344
100
AcDbEntity
  8
0
  6
Continuous
 62
    70
440
 16777216
100
AcDbLine
 10
363.654125
 20
334.60257
 30
0.0
 11
363.654125
 21
372.0
 31
0.0
  0
LINE
  5
349
330
344
100
AcDbEntity
  8
0
  6
Continuous
 62
    70
440
 16777216
100
AcDbLine
 10
353.654125
 20
370.0
 30
0.0
 11
359.654125
 21
370.0
 31
0.0
  0
INSERT
  5
34A
330
344
100
AcDbEntity
  8
0
 62
    70
440
 16777216
100
AcDbBlockReference
  2
_CLOSED
 10
349.654125
 20
370.0
 30
0.0
 41
4.0
 42
4.0
 43
4.0
 50
180.0
  0
INSERT
  5
34B
330
344
100
AcDbEntity
  8
0
 62
    70
440
 16777216
100
AcDbBlockReference
  2
_CLOSED
 10
363.654125
 20
370.0
 30
0.0
 41
4.0
 42
4.0
 43
4.0
  0
MTEXT
  5
34C
330
344
100
AcDbEntity
  8
0
 62
    70
440
 16777216
100
AcDbMText
 10
356.654114
 20
374.0
 30
0.0
 40
4.0
 41
0.0
 46
0.0
 71
     5
 72
     1
  1
14
 73
     1
 44
1.0
  0
POINT
  5
34D
330
344
100
AcDbEntity
  8
DEFPOINTS
 62
     0
440
 16777216
100
AcDbPoint
 10
349.654125
 20
333.40257
 30
0.0
  0
POINT
  5
34E
330
344
100
AcDbEntity
  8
DEFPOINTS
 62
     0
440
 16777216
100
AcDbPoint
 10
363.654125
 20
333.40257
 30
0.0
  0
POINT
  5
34F
330
344
100
AcDbEntity
  8
DEFPOINTS
 62
     0
440
 16777216
100
AcDbPoint
 10
363.654125
 20
370.0
 30
0.0
  0
ENDBLK
  5
346
330
344
100
AcDbEntity
  8
0
100
AcDbBlockEnd
  0
BLOCK
  5
352
330
351
100
AcDbEntity
  8
0
100
AcDbBlockBegin
  2
*D32
 70
     1
 10
0.0
 20
0.0
 30
0.0
  3
*D32
  1
*D33
  0
LINE
  5
354
330
351
100
AcDbEntity
  8
0
  6
Continuous
 62
    70
440
 16777216
100
AcDbLine
 10
367.104125
 20
331.15257
 30
0.0
 11
414.396271
 21
331.15257
 31
0.0
  0
LINE
  5
355
330
351
100
AcDbEntity
  8
0
  6
Continuous
 62
    70
440
 16777216
100
AcDbLine
 10
367.104125
 20
160.15257
 30
0.0
 11
414.396271
 21
160.15257
 31
0.0
  0
LINE
  5
356
330
351
100
AcDbEntity
  8
0
  6
Continuous
 62
    70
440
 16777216
100
AcDbLine
 10
412.3962709999999
 20
327.15257
 30
0.0
 11
412.3962709999999
 21
164.15257
 31
0.0
  0
INSERT
  5
357
330
351
100
AcDbEntity
  8
0
 62
    70
440
 16777216
100
AcDbBlockReference
  2
_CLOSED
 10
412.3962709999999
 20
331.15257
 30
0.0
 41
4.0
 42
4.0
 43
4.0
 50
90.0
  0
INSERT
  5
358
330
351
100
AcDbEntity
  8
0
 62
    70
440
 16777216
100
AcDbBlockReference
  2
_CLOSED
 10
412.3962709999999
 20
160.15257
 30
0.0
 41
4.0
 42
4.0
 43
4.0
 50
270.0
  0
MTEXT
  5
359
330
351
100
AcDbEntity
  8
0
 62
    70
440
 16777216
100
AcDbMText
 10
408.3962709999999
 20
245.652573
 30
0.0
 40
4.0
 41
0.0
 46
0.0
 71
     5
 72
     1
  1
171
 11
0.0
 21
1.0
 31
0.0
 73
     1
 44
1.0
  0
POINT
  5
35A
330
351
100
AcDbEntity
  8
DEFPOINTS
 62
     0
440
 16777216
100
AcDbPoint
 10
365.904125
 20
331.15257
 30
0.0
  0
POINT
  5
35B
330
351
100
AcDbEntity
  8
DEFPOINTS
 62
     0
440
 16777216
100
AcDbPoint
 10
365.904125
 20
160.15257
 30
0.0
  0
POINT
  5
35C
330
351
100
AcDbEntity
  8
DEFPOINTS
 62
     0
440
 16777216
100
AcDbPoint
 10
412.3962709999999
 20
160.15257
 30
0.0
  0
ENDBLK
  5
353
330
351
100
AcDbEntity
  8
0
100
AcDbBlockEnd
  0
BLOCK
  5
367
330
366
100
AcDbEntity
  8
0
100
AcDbBlockBegin
  2
*D33
 70
     1
 10
0.0
 20
0.0
 30
0.0
  3
*D33
  1
*D34
  0
LINE
  5
497
330
366
100
AcDbEntity
  8
0
  6
Continuous
 62
    70
440
 16777216
370
    -2
100
AcDbLine
 10
208.5940073432689
 20
371.3501479510167
 30
0.0
 11
162.0627090123734
 21
333.6698508433531
 31
0.0
  0
LINE
  5
498
330
366
100
AcDbEntity
  8
0
  6
Continuous
 62
    70
440
 16777216
370
    -2
100
AcDbLine
 10
155.8455409876267
 20
328.635288156647
 30
0.0
 11
153.9026759752533
 21
327.0619873132939
 31
0.0
  0
MTEXT
  5
499
330
366
100
AcDbEntity
  8
0
  6
Continuous
 62
    70
440
 16777216
100
AcDbMText
 10
194.0956891805958
 20
363.388135974321
 30
0.0
 40
2.5
 41
0.0
 46
0.0
 71
     5
 72
     1
  1
%%c Vorbohrung
 11
0.7771460049493367
 21
0.629320337341235
 31
0.0
 73
     1
 44
1.0
  0
LINE
  5
49A
330
366
100
AcDbEntity
  8
0
  6
Continuous
 62
    70
440
 16777216
370
    -2
100
AcDbLine
 10
157.788406
 20
330.2085890000001
 30
0.0
 11
160.119844
 21
332.09655
 31
0.0
  0
INSERT
  5
49B
330
366
100
AcDbEntity
  8
0
  6
Continuous
 62
    70
440
 16777216
370
    -2
100
AcDbBlockReference
  2
_CLOSED
 10
157.788406
 20
330.2085890000001
 30
0.0
 41
2.5
 42
2.5
 43
2.5
 50
38.99999604028547
  0
INSERT
  5
49C
330
366
100
AcDbEntity
  8
0
  6
Continuous
 62
    70
440
 16777216
370
    -2
100
AcDbBlockReference
  2
_CLOSED
 10
160.119844
 20
332.09655
 30
0.0
 41
2.5
 42
2.5
 43
2.5
 50
218.9999960402854
  0
POINT
  5
49D
330
366
100
AcDbEntity
  8
DEFPOINTS
  6
Continuous
 62
     0
440
 16777216
100
AcDbPoint
 10
160.119844
 20
332.09655
 30
0.0
  0
POINT
  5
49E
330
366
100
AcDbEntity
  8
DEFPOINTS
  6
Continuous
 62
     0
440
 16777216
100
AcDbPoint
 10
157.788406
 20
330.2085890000001
 30
0.0
  0
ENDBLK
  5
368
330
366
100
AcDbEntity
  8
0
100
AcDbBlockEnd
  0
BLOCK
  5
373
330
372
100
AcDbEntity
  8
0
100
AcDbBlockBegin
  2
*D34
 70
     1
 10
0.0
 20
0.0
 30
0.0
  3
*D34
  1
*D35
  0
LINE
  5
487
330
372
100
AcDbEntity
  8
0
  6
Continuous
 62
    70
440
 16777216
370
    -2
100
AcDbLine
 10
415.2456749822996
 20
370.9759342880387
 30
0.0
 11
366.8205362002743
 21
333.5967137686428
 31
0.0
  0
LINE
  5
488
330
372
100
AcDbEntity
  8
0
  6
Continuous
 62
    70
440
 16777216
370
    -2
100
AcDbLine
 10
360.4877127997256
 20
328.7084262313572
 30
0.0
 11
358.5087055994512
 21
327.1808364627144
 31
0.0
  0
MTEXT
  5
489
330
372
100
AcDbEntity
  8
0
  6
Continuous
 62
    70
440
 16777216
100
AcDbMText
 10
400.565719439514
 20
363.3540073974828
 30
0.0
 40
2.5
 41
0.0
 46
0.0
 71
     5
 72
     1
  1
%%c Vorbohrung
 11
0.7916028801097569
 21
0.6110359074571134
 31
0.0
 73
     1
 44
1.0
  0
LINE
  5
48A
330
372
100
AcDbEntity
  8
0
  6
Continuous
 62
    70
440
 16777216
370
    -2
100
AcDbLine
 10
362.46672
 20
330.236016
 30
0.0
 11
364.8415289999999
 21
332.069124
 31
0.0
  0
INSERT
  5
48B
330
372
100
AcDbEntity
  8
0
  6
Continuous
 62
    70
440
 16777216
370
    -2
100
AcDbBlockReference
  2
_CLOSED
 10
362.46672
 20
330.236016
 30
0.0
 41
2.5
 42
2.5
 43
2.5
 50
37.66444356576226
  0
INSERT
  5
48C
330
372
100
AcDbEntity
  8
0
  6
Continuous
 62
    70
440
 16777216
370
    -2
100
AcDbBlockReference
  2
_CLOSED
 10
364.8415289999999
 20
332.069124
 30
0.0
 41
2.5
 42
2.5
 43
2.5
 50
217.6644435657622
  0
POINT
  5
48D
330
372
100
AcDbEntity
  8
DEFPOINTS
  6
Continuous
 62
     0
440
 16777216
100
AcDbPoint
 10
364.8415289999999
 20
332.069124
 30
0.0
  0
POINT
  5
48E
330
372
100
AcDbEntity
  8
DEFPOINTS
  6
Continuous
 62
     0
440
 16777216
100
AcDbPoint
 10
362.46672
 20
330.236016
 30
0.0
  0
ENDBLK
  5
374
330
372
100
AcDbEntity
  8
0
100
AcDbBlockEnd
  0
BLOCK
  5
3D9
330
3D8
100
AcDbEntity
  8
0
100
AcDbBlockBegin
  2
block 2
 70
     0
 10
0.0
 20
0.0
 30
0.0
  3
block 2
  1

  0
INSERT
  5
3DA
330
3D8
100
AcDbEntity
  8
Ebene 1
100
AcDbBlockReference
  2
block 3
 10
0.0
 20
0.0
 30
0.0
  0
INSERT
  5
3DB
330
3D8
100
AcDbEntity
  8
Ebene 1
100
AcDbBlockReference
  2
block 7
 10
0.0
 20
0.0
 30
0.0
  0
ENDBLK
  5
3DC
330
3D8
100
AcDbEntity
  8
0
100
AcDbBlockEnd
  0
BLOCK
  5
3DE
330
3DD
100
AcDbEntity
  8
0
100
AcDbBlockBegin
  2
block 3
 70
     0
 10
0.0
 20
0.0
 30
0.0
  3
block 3
  1

  0
INSERT
  5
3DF
330
3DD
100
AcDbEntity
  8
Ebene 1
100
AcDbBlockReference
  2
block 4
 10
0.0
 20
0.0
 30
0.0
  0
ENDBLK
  5
3E0
330
3DD
100
AcDbEntity
  8
0
100
AcDbBlockEnd
  0
BLOCK
  5
3E2
330
3E1
100
AcDbEntity
  8
0
100
AcDbBlockBegin
  2
block 4
 70
     0
 10
0.0
 20
0.0
 30
0.0
  3
block 4
  1

  0
INSERT
  5
3E3
330
3E1
100
AcDbEntity
  8
Ebene 1
100
AcDbBlockReference
  2
block 5
 10
0.0
 20
0.0
 30
0.0
  0
INSERT
  5
3E4
330
3E1
100
AcDbEntity
  8
Ebene 1
100
AcDbBlockReference
  2
block 6
 10
0.0
 20
0.0
 30
0.0
  0
HATCH
  5
3E5
330
3E1
100
AcDbEntity
  8
Ebene 1
 62
     7
420
 16776959
100
AcDbHatch
 10
0.0
 20
0.0
 30
0.0
210
0.0
220
0.0
230
1.0
  2
SOLID
 70
     1
 71
     0
 91
        4
 92
        1
 93
        1
 72
     4
 94
        3
 73
     0
 74
     0
 95
       35
 96
       31
 40
0.0
 40
0.0
 40
0.0
 40
0.0
 40
1.0
 40
1.0
 40
1.0
 40
2.0
 40
2.0
 40
2.0
 40
3.0
 40
3.0
 40
3.0
 40
4.0
 40
4.0
 40
4.0
 40
5.0
 40
5.0
 40
5.0
 40
6.0
 40
6.0
 40
6.0
 40
7.0
 40
7.0
 40
7.0
 40
8.0
 40
8.0
 40
8.0
 40
9.0
 40
9.0
 40
9.0
 40
10.0
 40
10.0
 40
10.0
 40
10.0
 10
132.7395146690884
 20
143.7522841103515
 10
132.7395146690884
 20
144.0427260473861
 10
132.6034482836709
 20
144.3965305194565
 10
131.9733519108571
 20
144.3965305194565
 10
131.9733519108571
 20
144.3965305194565
 10
131.2064483193113
 20
144.3965305194565
 10
131.2064483193113
 20
144.3965305194565
 10
131.2064483193113
 20
144.3965305194565
 10
131.2064483193113
 20
142.1007197080419
 10
131.2064483193113
 20
142.1007197080419
 10
131.2064483193113
 20
142.1007197080419
 10
131.4875769232502
 20
142.1007197080419
 10
131.4875769232502
 20
142.1007197080419
 10
131.4875769232502
 20
142.1007197080419
 10
131.4875769232502
 20
143.1307955150959
 10
131.4875769232502
 20
143.1307955150959
 10
131.4875769232502
 20
143.1307955150959
 10
131.9371569117804
 20
143.1307955150959
 10
131.9371569117804
 20
143.1307955150959
 10
131.9371569117804
 20
143.1307955150959
 10
132.3857138447813
 20
142.1007197080419
 10
132.3857138447813
 20
142.1007197080419
 10
132.3857138447813
 20
142.1007197080419
 10
132.6943943924617
 20
142.1007197080419
 10
132.6943943924617
 20
142.1007197080419
 10
132.6943943924617
 20
142.1007197080419
 10
132.2224130156141
 20
143.1714355140591
 10
132.2224130156141
 20
143.1714355140591
 10
132.5490146739485
 20
143.2348332975248
 10
132.7395146690884
 20
143.4801160617395
 10
132.7395146690884
 20
143.7522841103515
 97
        0
 97
        0
 92
        1
 93
        1
 72
     4
 94
        3
 73
     0
 74
     0
 95
       20
 96
       16
 40
0.0
 40
0.0
 40
0.0
 40
0.0
 40
1.0
 40
1.0
 40
1.0
 40
2.0
 40
2.0
 40
2.0
 40
3.0
 40
3.0
 40
3.0
 40
4.0
 40
4.0
 40
4.0
 40
5.0
 40
5.0
 40
5.0
 40
5.0
 10
131.85965163598
 20
143.3802093976217
 10
131.85965163598
 20
143.3802093976217
 10
131.4875769232502
 20
143.3802093976217
 10
131.4875769232502
 20
143.3802093976217
 10
131.4875769232502
 20
143.3802093976217
 10
131.4875769232502
 20
144.146763852852
 10
131.4875769232502
 20
144.146763852852
 10
131.4875769232502
 20
144.146763852852
 10
131.9089027448009
 20
144.146763852852
 10
131.9089027448009
 20
144.146763852852
 10
132.2130996825184
 20
144.146763852852
 10
132.4036349554352
 20
144.052004102705
 10
132.4036349554352
 20
143.7571171657836
 10
132.4036349554352
 20
143.5435138530032
 10
132.3264471796266
 20
143.3802093976217
 10
131.85965163598
 20
143.3802093976217
 97
        0
 97
        0
 92
        1
 93
        1
 72
     4
 94
        3
 73
     0
 74
     0
 95
       17
 96
       13
 40
0.0
 40
0.0
 40
0.0
 40
0.0
 40
1.0
 40
1.0
 40
1.0
 40
2.0
 40
2.0
 40
2.0
 40
3.0
 40
3.0
 40
3.0
 40
4.0
 40
4.0
 40
4.0
 40
4.0
 10
131.9371569117804
 20
145.1265299086249
 10
130.920521937717
 20
145.1265299086249
 10
130.0995375142176
 20
144.3011004852389
 10
130.0995375142176
 20
143.2899688443683
 10
130.0995375142176
 20
142.2777788701915
 10
130.920521937717
 20
141.4523494468055
 10
131.9371569117804
 20
141.4523494468055
 10
132.9531249667617
 20
141.4523494468055
 10
133.7737532538139
 20
142.2777788701915
 10
133.7737532538139
 20
143.2899688443683
 10
133.7737532538139
 20
144.3011004852389
 10
132.9531249667617
 20
145.1265299086249
 10
131.9371569117804
 20
145.1265299086249
 97
        0
 97
        0
 92
        1
 93
        1
 72
     4
 94
        3
 73
     0
 74
     0
 95
       17
 96
       13
 40
0.0
 40
0.0
 40
0.0
 40
0.0
 40
1.0
 40
1.0
 40
1.0
 40
2.0
 40
2.0
 40
2.0
 40
3.0
 40
3.0
 40
3.0
 40
4.0
 40
4.0
 40
4.0
 40
4.0
 10
131.9371569117804
 20
141.7334780507444
 10
131.0614213785668
 20
141.7334780507444
 10
130.3806694118495
 20
142.4141980333778
 10
130.3806694118495
 20
143.2899688443683
 10
130.3806694118495
 20
144.1649988220445
 10
131.0614213785668
 20
144.845401304686
 10
131.9371569117804
 20
144.845401304686
 10
132.8122221672335
 20
144.845401304686
 10
133.4922718721062
 20
144.1649988220445
 10
133.4922718721062
 20
143.2899688443683
 10
133.4922718721062
 20
142.4141980333778
 10
132.8122221672335
 20
141.7334780507444
 10
131.9371569117804
 20
141.7334780507444
 97
        0
 97
        0
 75
     2
 76
     1
 98
        0
450
        0
451
        0
460
0.0
461
0.0
452
        0
462
0.0
453
        0
470

  0
ENDBLK
  5
3E6
330
3E1
100
AcDbEntity
  8
0
100
AcDbBlockEnd
  0
BLOCK
  5
3E8
330
3E7
100
AcDbEntity
  8
0
100
AcDbBlockBegin
  2
block 5
 70
     0
 10
0.0
 20
0.0
 30
0.0
  3
block 5
  1

  0
SPLINE
  5
3E9
330
3E7
100
AcDbEntity
  8
Ebene 1
370
     0
100
AcDbSpline
210
0.0
220
0.0
230
1.0
 70
     9
 71
     3
 72
    35
 73
    31
 74
     0
 42
0.000000001
 43
0.0000000001
 40
0.0
 40
0.0
 40
0.0
 40
0.0
 40
1.0
 40
1.0
 40
1.0
 40
2.0
 40
2.0
 40
2.0
 40
3.0
 40
3.0
 40
3.0
 40
4.0
 40
4.0
 40
4.0
 40
5.0
 40
5.0
 40
5.0
 40
6.0
 40
6.0
 40
6.0
 40
7.0
 40
7.0
 40
7.0
 40
8.0
 40
8.0
 40
8.0
 40
9.0
 40
9.0
 40
9.0
 40
10.0
 40
10.0
 40
10.0
 40
10.0
 10
132.7395146690884
 20
143.7522841103515
 30
0.0
 10
132.7395146690884
 20
144.0427260473861
 30
0.0
 10
132.6034482836709
 20
144.3965305194565
 30
0.0
 10
131.9733519108571
 20
144.3965305194565
 30
0.0
 10
131.9733519108571
 20
144.3965305194565
 30
0.0
 10
131.2064483193113
 20
144.3965305194565
 30
0.0
 10
131.2064483193113
 20
144.3965305194565
 30
0.0
 10
131.2064483193113
 20
144.3965305194565
 30
0.0
 10
131.2064483193113
 20
142.1007197080419
 30
0.0
 10
131.2064483193113
 20
142.1007197080419
 30
0.0
 10
131.2064483193113
 20
142.1007197080419
 30
0.0
 10
131.4875769232502
 20
142.1007197080419
 30
0.0
 10
131.4875769232502
 20
142.1007197080419
 30
0.0
 10
131.4875769232502
 20
142.1007197080419
 30
0.0
 10
131.4875769232502
 20
143.1307955150959
 30
0.0
 10
131.4875769232502
 20
143.1307955150959
 30
0.0
 10
131.4875769232502
 20
143.1307955150959
 30
0.0
 10
131.9371569117804
 20
143.1307955150959
 30
0.0
 10
131.9371569117804
 20
143.1307955150959
 30
0.0
 10
131.9371569117804
 20
143.1307955150959
 30
0.0
 10
132.3857138447813
 20
142.1007197080419
 30
0.0
 10
132.3857138447813
 20
142.1007197080419
 30
0.0
 10
132.3857138447813
 20
142.1007197080419
 30
0.0
 10
132.6943943924617
 20
142.1007197080419
 30
0.0
 10
132.6943943924617
 20
142.1007197080419
 30
0.0
 10
132.6943943924617
 20
142.1007197080419
 30
0.0
 10
132.2224130156141
 20
143.1714355140591
 30
0.0
 10
132.2224130156141
 20
143.1714355140591
 30
0.0
 10
132.5490146739485
 20
143.2348332975248
 30
0.0
 10
132.7395146690884
 20
143.4801160617395
 30
0.0
 10
132.7395146690884
 20
143.7522841103515
 30
0.0
  0
SPLINE
  5
3EA
330
3E7
100
AcDbEntity
  8
Ebene 1
370
     0
100
AcDbSpline
210
0.0
220
0.0
230
1.0
 70
     9
 71
     3
 72
    20
 73
    16
 74
     0
 42
0.000000001
 43
0.0000000001
 40
0.0
 40
0.0
 40
0.0
 40
0.0
 40
1.0
 40
1.0
 40
1.0
 40
2.0
 40
2.0
 40
2.0
 40
3.0
 40
3.0
 40
3.0
 40
4.0
 40
4.0
 40
4.0
 40
5.0
 40
5.0
 40
5.0
 40
5.0
 10
131.85965163598
 20
143.3802093976217
 30
0.0
 10
131.85965163598
 20
143.3802093976217
 30
0.0
 10
131.4875769232502
 20
143.3802093976217
 30
0.0
 10
131.4875769232502
 20
143.3802093976217
 30
0.0
 10
131.4875769232502
 20
143.3802093976217
 30
0.0
 10
131.4875769232502
 20
144.146763852852
 30
0.0
 10
131.4875769232502
 20
144.146763852852
 30
0.0
 10
131.4875769232502
 20
144.146763852852
 30
0.0
 10
131.9089027448009
 20
144.146763852852
 30
0.0
 10
131.9089027448009
 20
144.146763852852
 30
0.0
 10
132.2130996825184
 20
144.146763852852
 30
0.0
 10
132.4036349554352
 20
144.052004102705
 30
0.0
 10
132.4036349554352
 20
143.7571171657836
 30
0.0
 10
132.4036349554352
 20
143.5435138530032
 30
0.0
 10
132.3264471796266
 20
143.3802093976217
 30
0.0
 10
131.85965163598
 20
143.3802093976217
 30
0.0
  0
ENDBLK
  5
3EB
330
3E7
100
AcDbEntity
  8
0
100
AcDbBlockEnd
  0
BLOCK
  5
3ED
330
3EC
100
AcDbEntity
  8
0
100
AcDbBlockBegin
  2
block 6
 70
     0
 10
0.0
 20
0.0
 30
0.0
  3
block 6
  1

  0
SPLINE
  5
3EE
330
3EC
100
AcDbEntity
  8
Ebene 1
370
     0
100
AcDbSpline
210
0.0
220
0.0
230
1.0
 70
     9
 71
     3
 72
    17
 73
    13
 74
     0
 42
0.000000001
 43
0.0000000001
 40
0.0
 40
0.0
 40
0.0
 40
0.0
 40
1.0
 40
1.0
 40
1.0
 40
2.0
 40
2.0
 40
2.0
 40
3.0
 40
3.0
 40
3.0
 40
4.0
 40
4.0
 40
4.0
 40
4.0
 10
131.9371569117804
 20
145.1265299086249
 30
0.0
 10
130.920521937717
 20
145.1265299086249
 30
0.0
 10
130.0995375142176
 20
144.3011004852389
 30
0.0
 10
130.0995375142176
 20
143.2899688443683
 30
0.0
 10
130.0995375142176
 20
142.2777788701915
 30
0.0
 10
130.920521937717
 20
141.4523494468055
 30
0.0
 10
131.9371569117804
 20
141.4523494468055
 30
0.0
 10
132.9531249667617
 20
141.4523494468055
 30
0.0
 10
133.7737532538139
 20
142.2777788701915
 30
0.0
 10
133.7737532538139
 20
143.2899688443683
 30
0.0
 10
133.7737532538139
 20
144.3011004852389
 30
0.0
 10
132.9531249667617
 20
145.1265299086249
 30
0.0
 10
131.9371569117804
 20
145.1265299086249
 30
0.0
  0
SPLINE
  5
3EF
330
3EC
100
AcDbEntity
  8
Ebene 1
370
     0
100
AcDbSpline
210
0.0
220
0.0
230
1.0
 70
     9
 71
     3
 72
    17
 73
    13
 74
     0
 42
0.000000001
 43
0.0000000001
 40
0.0
 40
0.0
 40
0.0
 40
0.0
 40
1.0
 40
1.0
 40
1.0
 40
2.0
 40
2.0
 40
2.0
 40
3.0
 40
3.0
 40
3.0
 40
4.0
 40
4.0
 40
4.0
 40
4.0
 10
131.9371569117804
 20
141.7334780507444
 30
0.0
 10
131.0614213785668
 20
141.7334780507444
 30
0.0
 10
130.3806694118495
 20
142.4141980333778
 30
0.0
 10
130.3806694118495
 20
143.2899688443683
 30
0.0
 10
130.3806694118495
 20
144.1649988220445
 30
0.0
 10
131.0614213785668
 20
144.845401304686
 30
0.0
 10
131.9371569117804
 20
144.845401304686
 30
0.0
 10
132.8122221672335
 20
144.845401304686
 30
0.0
 10
133.4922718721062
 20
144.1649988220445
 30
0.0
 10
133.4922718721062
 20
143.2899688443683
 30
0.0
 10
133.4922718721062
 20
142.4141980333778
 30
0.0
 10
132.8122221672335
 20
141.7334780507444
 30
0.0
 10
131.9371569117804
 20
141.7334780507444
 30
0.0
  0
ENDBLK
  5
3F0
330
3EC
100
AcDbEntity
  8
0
100
AcDbBlockEnd
  0
BLOCK
  5
3F2
330
3F1
100
AcDbEntity
  8
0
100
AcDbBlockBegin
  2
block 7
 70
     0
 10
0.0
 20
0.0
 30
0.0
  3
block 7
  1

  0
INSERT
  5
3F3
330
3F1
100
AcDbEntity
  8
Ebene 1
100
AcDbBlockReference
  2
block 8
 10
0.0
 20
0.0
 30
0.0
  0
ENDBLK
  5
3F4
330
3F1
100
AcDbEntity
  8
0
100
AcDbBlockEnd
  0
BLOCK
  5
3F6
330
3F5
100
AcDbEntity
  8
0
100
AcDbBlockBegin
  2
block 8
 70
     0
 10
0.0
 20
0.0
 30
0.0
  3
block 8
  1

  0
SPLINE
  5
3F7
330
3F5
100
AcDbEntity
  8
Ebene 1
370
     0
100
AcDbSpline
210
0.0
220
0.0
230
1.0
 70
     9
 71
     3
 72
    35
 73
    31
 74
     0
 42
0.000000001
 43
0.0000000001
 40
0.0
 40
0.0
 40
0.0
 40
0.0
 40
1.0
 40
1.0
 40
1.0
 40
2.0
 40
2.0
 40
2.0
 40
3.0
 40
3.0
 40
3.0
 40
4.0
 40
4.0
 40
4.0
 40
5.0
 40
5.0
 40
5.0
 40
6.0
 40
6.0
 40
6.0
 40
7.0
 40
7.0
 40
7.0
 40
8.0
 40
8.0
 40
8.0
 40
9.0
 40
9.0
 40
9.0
 40
10.0
 40
10.0
 40
10.0
 40
10.0
 10
90.00690853706579
 20
154.2114393990717
 30
0.0
 10
90.00690853706579
 20
151.7912427941494
 30
0.0
 10
91.98197015334443
 20
149.8294456219768
 30
0.0
 10
94.40199036938237
 20
149.8294456219768
 30
0.0
 10
94.40199036938237
 20
149.8294456219768
 30
0.0
 10
120.890450249161
 20
149.8323736774577
 30
0.0
 10
120.890450249161
 20
149.8323736774577
 30
0.0
 10
120.890450249161
 20
149.8323736774577
 30
0.0
 10
120.8873810825726
 20
151.4264000256796
 30
0.0
 10
120.8873810825726
 20
151.4264000256796
 30
0.0
 10
120.8873810825726
 20
151.4264000256796
 30
0.0
 10
103.964031792101
 20
151.4250241923814
 30
0.0
 10
103.964031792101
 20
151.4250241923814
 30
0.0
 10
103.964031792101
 20
151.4250241923814
 30
0.0
 10
102.2152771144932
 20
151.4250241923814
 30
0.0
 10
102.2152771144932
 20
153.5508277492587
 30
0.0
 10
102.2152771144932
 20
155.6547590844718
 30
0.0
 10
103.9734888628956
 20
155.6551118622406
 30
0.0
 10
103.9734888628956
 20
155.6551118622406
 30
0.0
 10
103.9734888628956
 20
155.6551118622406
 30
0.0
 10
133.7785510314692
 20
155.6551118622406
 30
0.0
 10
133.7785510314692
 20
155.6551118622406
 30
0.0
 10
133.7785510314692
 20
155.6551118622406
 30
0.0
 10
133.7768610776665
 20
158.5934331761667
 30
0.0
 10
133.7768610776665
 20
158.5934331761667
 30
0.0
 10
133.7768610776665
 20
158.5934331761667
 30
0.0
 10
94.3889023141607
 20
158.5934331761667
 30
0.0
 10
94.3889023141607
 20
158.5934331761667
 30
0.0
 10
91.96870570923842
 20
158.5934331761667
 30
0.0
 10
90.00690853706579
 20
156.6314243373328
 30
0.0
 10
90.00690853706579
 20
154.2114393990717
 30
0.0
  0
INSERT
  5
3F8
330
3F5
100
AcDbEntity
  8
Ebene 1
100
AcDbBlockReference
  2
block 9
 10
0.0
 20
0.0
 30
0.0
  0
SPLINE
  5
3F9
330
3F5
100
AcDbEntity
  8
Ebene 1
370
     0
100
AcDbSpline
210
0.0
220
0.0
230
1.0
 70
    11
 71
     3
 72
    32
 73
    28
 74
     0
 42
0.000000001
 43
0.0000000001
 40
0.0
 40
0.0
 40
0.0
 40
0.0
 40
1.0
 40
1.0
 40
1.0
 40
2.0
 40
2.0
 40
2.0
 40
3.0
 40
3.0
 40
3.0
 40
4.0
 40
4.0
 40
4.0
 40
5.0
 40
5.0
 40
5.0
 40
6.0
 40
6.0
 40
6.0
 40
7.0
 40
7.0
 40
7.0
 40
8.0
 40
8.0
 40
8.0
 40
9.0
 40
9.0
 40
9.0
 40
9.0
 10
133.7754818648809
 20
140.3850555851455
 30
0.0
 10
133.7754818648809
 20
140.3850555851455
 30
0.0
 10
92.94145512886592
 20
140.3850555851455
 30
0.0
 10
92.94145512886592
 20
140.3850555851455
 30
0.0
 10
85.37479532190753
 20
140.4160647510211
 30
0.0
 10
79.80048324189784
 20
146.3280204335279
 30
0.0
 10
79.77995157575499
 20
154.0891313466365
 30
0.0
 10
79.76100740957163
 20
161.2149600537304
 30
0.0
 10
85.35673310014608
 20
167.401129895908
 30
0.0
 10
92.92490985151026
 20
167.401129895908
 30
0.0
 10
92.92490985151026
 20
167.401129895908
 30
0.0
 10
133.7754818648809
 20
167.401129895908
 30
0.0
 10
133.7754818648809
 20
167.401129895908
 30
0.0
 10
133.7754818648809
 20
167.401129895908
 30
0.0
 10
133.7754818648809
 20
171.0021442484829
 30
0.0
 10
133.7754818648809
 20
171.0021442484829
 30
0.0
 10
133.7754818648809
 20
171.0021442484829
 30
0.0
 10
76.29147333142014
 20
171.0021442484829
 30
0.0
 10
76.29147333142014
 20
171.0021442484829
 30
0.0
 10
76.29147333142014
 20
171.0021442484829
 30
0.0
 10
76.29147333142014
 20
137.3314817741598
 30
0.0
 10
76.29147333142014
 20
137.3314817741598
 30
0.0
 10
76.29147333142014
 20
137.3314817741598
 30
0.0
 10
133.7754818648809
 20
137.3314817741598
 30
0.0
 10
133.7754818648809
 20
137.3314817741598
 30
0.0
 10
133.7754818648809
 20
137.3314817741598
 30
0.0
 10
133.7754818648809
 20
140.3850555851455
 30
0.0
 10
133.7754818648809
 20
140.3850555851455
 30
0.0
  0
SPLINE
  5
3FA
330
3F5
100
AcDbEntity
  8
Ebene 1
370
     0
100
AcDbSpline
210
0.0
220
0.0
230
1.0
 70
     9
 71
     3
 72
    17
 73
    13
 74
     0
 42
0.000000001
 43
0.0000000001
 40
0.0
 40
0.0
 40
0.0
 40
0.0
 40
1.0
 40
1.0
 40
1.0
 40
2.0
 40
2.0
 40
2.0
 40
3.0
 40
3.0
 40
3.0
 40
4.0
 40
4.0
 40
4.0
 40
4.0
 10
103.9030365158794
 20
132.3901941224448
 30
0.0
 10
102.4247565535934
 20
132.3901941224448
 30
0.0
 10
101.8359704575035
 20
131.4824263678261
 30
0.0
 10
101.8359704575035
 20
130.4058191730704
 30
0.0
 10
101.8359704575035
 20
129.3822697547389
 30
0.0
 10
102.4247565535934
 20
128.421444223696
 30
0.0
 10
103.9030365158794
 20
128.421444223696
 30
0.0
 10
105.3813517559422
 20
128.421444223696
 30
0.0
 10
105.9699261853708
 20
129.3822697547389
 30
0.0
 10
105.9699261853708
 20
130.4058191730704
 30
0.0
 10
105.9699261853708
 20
131.4824263678261
 30
0.0
 10
105.3813517559422
 20
132.3901941224448
 30
0.0
 10
103.9030365158794
 20
132.3901941224448
 30
0.0
  0
HATCH
  5
3FB
330
3F5
100
AcDbEntity
  8
Ebene 1
 62
     7
420
 16776959
100
AcDbHatch
 10
0.0
 20
0.0
 30
0.0
210
0.0
220
0.0
230
1.0
  2
SOLID
 70
     1
 71
     0
 91
        7
 92
        1
 93
        1
 72
     4
 94
        3
 73
     0
 74
     0
 95
       35
 96
       31
 40
0.0
 40
0.0
 40
0.0
 40
0.0
 40
1.0
 40
1.0
 40
1.0
 40
2.0
 40
2.0
 40
2.0
 40
3.0
 40
3.0
 40
3.0
 40
4.0
 40
4.0
 40
4.0
 40
5.0
 40
5.0
 40
5.0
 40
6.0
 40
6.0
 40
6.0
 40
7.0
 40
7.0
 40
7.0
 40
8.0
 40
8.0
 40
8.0
 40
9.0
 40
9.0
 40
9.0
 40
10.0
 40
10.0
 40
10.0
 40
10.0
 10
90.00690853706579
 20
154.2114393990717
 10
90.00690853706579
 20
151.7912427941494
 10
91.98197015334443
 20
149.8294456219768
 10
94.40199036938237
 20
149.8294456219768
 10
94.40199036938237
 20
149.8294456219768
 10
120.890450249161
 20
149.8323736774577
 10
120.890450249161
 20
149.8323736774577
 10
120.890450249161
 20
149.8323736774577
 10
120.8873810825726
 20
151.4264000256796
 10
120.8873810825726
 20
151.4264000256796
 10
120.8873810825726
 20
151.4264000256796
 10
103.964031792101
 20
151.4250241923814
 10
103.964031792101
 20
151.4250241923814
 10
103.964031792101
 20
151.4250241923814
 10
102.2152771144932
 20
151.4250241923814
 10
102.2152771144932
 20
153.5508277492587
 10
102.2152771144932
 20
155.6547590844718
 10
103.9734888628956
 20
155.6551118622406
 10
103.9734888628956
 20
155.6551118622406
 10
103.9734888628956
 20
155.6551118622406
 10
133.7785510314692
 20
155.6551118622406
 10
133.7785510314692
 20
155.6551118622406
 10
133.7785510314692
 20
155.6551118622406
 10
133.7768610776665
 20
158.5934331761667
 10
133.7768610776665
 20
158.5934331761667
 10
133.7768610776665
 20
158.5934331761667
 10
94.3889023141607
 20
158.5934331761667
 10
94.3889023141607
 20
158.5934331761667
 10
91.96870570923842
 20
158.5934331761667
 10
90.00690853706579
 20
156.6314243373328
 10
90.00690853706579
 20
154.2114393990717
 97
        0
 97
        0
 92
        1
 93
       10
 72
     1
 10
127.5556923013387
 20
127.3110761964683
 11
127.5556923013387
 21
133.5287843711747
 72
     1
 10
127.5556923013387
 20
133.5287843711747
 11
130.0030880722338
 21
133.5287843711747
 72
     1
 10
130.0030880722338
 20
133.5287843711747
 11
130.0030880722338
 21
128.5457983871901
 72
     1
 10
130.0030880722338
 20
128.5457983871901
 11
133.7754818648809
 21
128.5457983871901
 72
     1
 10
133.7754818648809
 20
128.5457983871901
 11
133.7754818648809
 21
135.0504912767971
 72
     1
 10
133.7754818648809
 20
135.0504912767971
 11
76.29524998092634
 21
135.0504912767971
 72
     1
 10
76.29524998092634
 20
135.0504912767971
 11
76.29524998092634
 21
125.9809276192921
 72
     1
 10
76.29524998092634
 20
125.9809276192921
 11
133.7754818648809
 21
125.9809276192921
 72
     1
 10
133.7754818648809
 20
125.9809276192921
 11
133.7840896424391
 21
127.3110761964683
 72
     1
 10
133.7840896424391
 20
127.3110761964683
 11
127.5556923013387
 21
127.3110761964683
 97
        0
 92
        1
 93
        1
 72
     4
 94
        3
 73
     0
 74
     0
 95
       44
 96
       40
 40
0.0
 40
0.0
 40
0.0
 40
0.0
 40
1.0
 40
1.0
 40
1.0
 40
2.0
 40
2.0
 40
2.0
 40
3.0
 40
3.0
 40
3.0
 40
4.0
 40
4.0
 40
4.0
 40
5.0
 40
5.0
 40
5.0
 40
6.0
 40
6.0
 40
6.0
 40
7.0
 40
7.0
 40
7.0
 40
8.0
 40
8.0
 40
8.0
 40
9.0
 40
9.0
 40
9.0
 40
10.0
 40
10.0
 40
10.0
 40
11.0
 40
11.0
 40
11.0
 40
12.0
 40
12.0
 40
12.0
 40
13.0
 40
13.0
 40
13.0
 40
13.0
 10
92.69355819074588
 20
127.4781870255383
 10
91.14980267457481
 20
127.2108520323586
 10
89.9986535372764
 20
127.1932836994734
 10
89.1614766141901
 20
127.1932836994734
 10
86.72822723182303
 20
127.1932836994734
 10
83.91563591468933
 20
128.0297197892453
 10
83.91563591468933
 20
130.3789375070895
 10
83.91563591468933
 20
132.7195474473756
 10
86.33579724183475
 20
133.6183546466673
 10
89.68461076751051
 20
133.6183546466673
 10
90.2864849188221
 20
133.6183546466673
 10
91.55546183089224
 20
133.5739399255782
 10
92.44499097486514
 20
133.3424118759294
 10
92.44499097486514
 20
133.3424118759294
 10
92.24881125764786
 20
131.9898619104359
 10
92.24881125764786
 20
131.9898619104359
 10
91.49002155478399
 20
132.2923721891493
 10
90.60031602192671
 20
132.3901941224448
 10
90.02482964771971
 20
132.3901941224448
 10
88.04941525367228
 20
132.3901941224448
 10
86.42727251727881
 20
131.8296655256339
 10
86.42727251727881
 20
130.3789375070895
 10
86.42727251727881
 20
129.1600583010432
 10
87.69628470712584
 20
128.421444223696
 10
89.47534299507159
 20
128.421444223696
 10
89.80243854228225
 20
128.421444223696
 10
90.11644603427127
 20
128.456933667235
 10
90.33866075082432
 20
128.5279125543131
 10
90.33866075082432
 20
128.5279125543131
 10
90.33590908422786
 20
129.7560730785357
 10
90.33590908422786
 20
129.7560730785357
 10
90.33590908422786
 20
129.7560730785357
 10
90.33590908422786
 20
130.9308583263422
 10
90.33590908422786
 20
130.9308583263422
 10
90.33590908422786
 20
130.9308583263422
 10
92.69355819074588
 20
130.9308583263422
 10
92.69355819074588
 20
130.9308583263422
 10
92.69355819074588
 20
130.9308583263422
 10
92.69355819074588
 20
127.4781870255383
 10
92.69355819074588
 20
127.4781870255383
 97
        0
 97
        0
 92
        1
 93
        1
 72
     4
 94
        3
 73
     0
 74
     0
 95
       17
 96
       13
 40
0.0
 40
0.0
 40
0.0
 40
0.0
 40
1.0
 40
1.0
 40
1.0
 40
2.0
 40
2.0
 40
2.0
 40
3.0
 40
3.0
 40
3.0
 40
4.0
 40
4.0
 40
4.0
 40
4.0
 10
103.9030365158794
 20
127.1932836994734
 10
100.9202652030873
 20
127.1932836994734
 10
99.32433385491407
 20
128.430404779023
 10
99.32433385491407
 20
130.4058191730704
 10
99.32433385491407
 20
132.3995074555405
 10
100.8940916414431
 20
133.6183546466673
 10
103.9030365158794
 20
133.6183546466673
 10
106.9118075502303
 20
133.6183546466673
 10
108.4815627879603
 20
132.3995074555405
 10
108.4815627879603
 20
130.4058191730704
 10
108.4815627879603
 20
128.430404779023
 10
106.885631439787
 20
127.1932836994734
 10
103.9030365158794
 20
127.1932836994734
 97
        0
 97
        0
 92
        1
 93
        6
 72
     1
 10
121.2739196838223
 20
127.3000695300824
 11
115.0730742864635
 21
127.3000695300824
 72
     1
 10
115.0730742864635
 20
127.3000695300824
 11
115.0730742864635
 21
133.5115721888445
 72
     1
 10
115.0730742864635
 20
133.5115721888445
 11
117.5066764465994
 21
133.5115721888445
 72
     1
 10
117.5066764465994
 20
133.5115721888445
 11
117.5066764465994
 21
128.5279125543131
 72
     1
 10
117.5066764465994
 20
128.5279125543131
 11
121.2739196838223
 21
128.5279125543131
 72
     1
 10
121.2739196838223
 20
128.5279125543131
 11
121.2739196838223
 21
127.3000695300824
 97
        0
 92
        1
 93
        1
 72
     4
 94
        3
 73
     0
 74
     0
 95
       32
 96
       28
 40
0.0
 40
0.0
 40
0.0
 40
0.0
 40
1.0
 40
1.0
 40
1.0
 40
2.0
 40
2.0
 40
2.0
 40
3.0
 40
3.0
 40
3.0
 40
4.0
 40
4.0
 40
4.0
 40
5.0
 40
5.0
 40
5.0
 40
6.0
 40
6.0
 40
6.0
 40
7.0
 40
7.0
 40
7.0
 40
8.0
 40
8.0
 40
8.0
 40
9.0
 40
9.0
 40
9.0
 40
9.0
 10
133.7754818648809
 20
140.3850555851455
 10
133.7754818648809
 20
140.3850555851455
 10
92.94145512886592
 20
140.3850555851455
 10
92.94145512886592
 20
140.3850555851455
 10
85.37479532190753
 20
140.4160647510211
 10
79.80048324189784
 20
146.3280204335279
 10
79.77995157575499
 20
154.0891313466365
 10
79.76100740957163
 20
161.2149600537304
 10
85.35673310014608
 20
167.401129895908
 10
92.92490985151026
 20
167.401129895908
 10
92.92490985151026
 20
167.401129895908
 10
133.7754818648809
 20
167.401129895908
 10
133.7754818648809
 20
167.401129895908
 10
133.7754818648809
 20
167.401129895908
 10
133.7754818648809
 20
171.0021442484829
 10
133.7754818648809
 20
171.0021442484829
 10
133.7754818648809
 20
171.0021442484829
 10
76.29147333142014
 20
171.0021442484829
 10
76.29147333142014
 20
171.0021442484829
 10
76.29147333142014
 20
171.0021442484829
 10
76.29147333142014
 20
137.3314817741598
 10
76.29147333142014
 20
137.3314817741598
 10
76.29147333142014
 20
137.3314817741598
 10
133.7754818648809
 20
137.3314817741598
 10
133.7754818648809
 20
137.3314817741598
 10
133.7754818648809
 20
137.3314817741598
 10
133.7754818648809
 20
140.3850555851455
 10
133.7754818648809
 20
140.3850555851455
 97
        0
 97
        0
 92
        1
 93
        1
 72
     4
 94
        3
 73
     0
 74
     0
 95
       17
 96
       13
 40
0.0
 40
0.0
 40
0.0
 40
0.0
 40
1.0
 40
1.0
 40
1.0
 40
2.0
 40
2.0
 40
2.0
 40
3.0
 40
3.0
 40
3.0
 40
4.0
 40
4.0
 40
4.0
 40
4.0
 10
103.9030365158794
 20
132.3901941224448
 10
102.4247565535934
 20
132.3901941224448
 10
101.8359704575035
 20
131.4824263678261
 10
101.8359704575035
 20
130.4058191730704
 10
101.8359704575035
 20
129.3822697547389
 10
102.4247565535934
 20
128.421444223696
 10
103.9030365158794
 20
128.421444223696
 10
105.3813517559422
 20
128.421444223696
 10
105.9699261853708
 20
129.3822697547389
 10
105.9699261853708
 20
130.4058191730704
 10
105.9699261853708
 20
131.4824263678261
 10
105.3813517559422
 20
132.3901941224448
 10
103.9030365158794
 20
132.3901941224448
 97
        0
 97
        0
 75
     0
 76
     1
 98
        0
450
        0
451
        0
460
0.0
461
0.0
452
        0
462
0.0
453
        0
470

  0
ENDBLK
  5
3FC
330
3F5
100
AcDbEntity
  8
0
100
AcDbBlockEnd
  0
BLOCK
  5
3FE
330
3FD
100
AcDbEntity
  8
0
100
AcDbBlockBegin
  2
block 9
 70
     0
 10
0.0
 20
0.0
 30
0.0
  3
block 9
  1

  0
POLYLINE
  5
3FF
330
3FD
100
AcDbEntity
  8
Ebene 1
370
     0
100
AcDb2dPolyline
 66
     1
 10
0.0
 20
0.0
 30
0.0
  0
VERTEX
  5
400
330
3FF
100
AcDbEntity
  8
Ebene 1
370
     0
100
AcDbVertex
100
AcDb2dVertex
 10
127.5556923013387
 20
127.3110761964683
 30
0.0
  0
VERTEX
  5
401
330
3FF
100
AcDbEntity
  8
Ebene 1
370
     0
100
AcDbVertex
100
AcDb2dVertex
 10
127.5556923013387
 20
133.5287843711747
 30
0.0
  0
VERTEX
  5
402
330
3FF
100
AcDbEntity
  8
Ebene 1
370
     0
100
AcDbVertex
100
AcDb2dVertex
 10
130.0030880722338
 20
133.5287843711747
 30
0.0
  0
VERTEX
  5
403
330
3FF
100
AcDbEntity
  8
Ebene 1
370
     0
100
AcDbVertex
100
AcDb2dVertex
 10
130.0030880722338
 20
128.5457983871901
 30
0.0
  0
VERTEX
  5
404
330
3FF
100
AcDbEntity
  8
Ebene 1
370
     0
100
AcDbVertex
100
AcDb2dVertex
 10
133.7754818648809
 20
128.5457983871901
 30
0.0
  0
VERTEX
  5
405
330
3FF
100
AcDbEntity
  8
Ebene 1
370
     0
100
AcDbVertex
100
AcDb2dVertex
 10
133.7754818648809
 20
135.0504912767971
 30
0.0
  0
VERTEX
  5
406
330
3FF
100
AcDbEntity
  8
Ebene 1
370
     0
100
AcDbVertex
100
AcDb2dVertex
 10
76.29524998092634
 20
135.0504912767971
 30
0.0
  0
VERTEX
  5
407
330
3FF
100
AcDbEntity
  8
Ebene 1
370
     0
100
AcDbVertex
100
AcDb2dVertex
 10
76.29524998092634
 20
125.9809276192921
 30
0.0
  0
VERTEX
  5
408
330
3FF
100
AcDbEntity
  8
Ebene 1
370
     0
100
AcDbVertex
100
AcDb2dVertex
 10
133.7754818648809
 20
125.9809276192921
 30
0.0
  0
VERTEX
  5
409
330
3FF
100
AcDbEntity
  8
Ebene 1
370
     0
100
AcDbVertex
100
AcDb2dVertex
 10
133.7840896424391
 20
127.3110761964683
 30
0.0
  0
VERTEX
  5
40A
330
3FF
100
AcDbEntity
  8
Ebene 1
370
     0
100
AcDbVertex
100
AcDb2dVertex
 10
127.5556923013387
 20
127.3110761964683
 30
0.0
  0
SEQEND
  5
40B
330
3FF
100
AcDbEntity
  8
Ebene 1
370
     0
  0
SPLINE
  5
40C
330
3FD
100
AcDbEntity
  8
Ebene 1
370
     0
100
AcDbSpline
210
0.0
220
0.0
230
1.0
 70
     9
 71
     3
 72
    44
 73
    40
 74
     0
 42
0.000000001
 43
0.0000000001
 40
0.0
 40
0.0
 40
0.0
 40
0.0
 40
1.0
 40
1.0
 40
1.0
 40
2.0
 40
2.0
 40
2.0
 40
3.0
 40
3.0
 40
3.0
 40
4.0
 40
4.0
 40
4.0
 40
5.0
 40
5.0
 40
5.0
 40
6.0
 40
6.0
 40
6.0
 40
7.0
 40
7.0
 40
7.0
 40
8.0
 40
8.0
 40
8.0
 40
9.0
 40
9.0
 40
9.0
 40
10.0
 40
10.0
 40
10.0
 40
11.0
 40
11.0
 40
11.0
 40
12.0
 40
12.0
 40
12.0
 40
13.0
 40
13.0
 40
13.0
 40
13.0
 10
92.69355819074588
 20
127.4781870255383
 30
0.0
 10
91.14980267457481
 20
127.2108520323586
 30
0.0
 10
89.9986535372764
 20
127.1932836994734
 30
0.0
 10
89.1614766141901
 20
127.1932836994734
 30
0.0
 10
86.72822723182303
 20
127.1932836994734
 30
0.0
 10
83.91563591468933
 20
128.0297197892453
 30
0.0
 10
83.91563591468933
 20
130.3789375070895
 30
0.0
 10
83.91563591468933
 20
132.7195474473756
 30
0.0
 10
86.33579724183475
 20
133.6183546466673
 30
0.0
 10
89.68461076751051
 20
133.6183546466673
 30
0.0
 10
90.2864849188221
 20
133.6183546466673
 30
0.0
 10
91.55546183089224
 20
133.5739399255782
 30
0.0
 10
92.44499097486514
 20
133.3424118759294
 30
0.0
 10
92.44499097486514
 20
133.3424118759294
 30
0.0
 10
92.24881125764786
 20
131.9898619104359
 30
0.0
 10
92.24881125764786
 20
131.9898619104359
 30
0.0
 10
91.49002155478399
 20
132.2923721891493
 30
0.0
 10
90.60031602192671
 20
132.3901941224448
 30
0.0
 10
90.02482964771971
 20
132.3901941224448
 30
0.0
 10
88.04941525367228
 20
132.3901941224448
 30
0.0
 10
86.42727251727881
 20
131.8296655256339
 30
0.0
 10
86.42727251727881
 20
130.3789375070895
 30
0.0
 10
86.42727251727881
 20
129.1600583010432
 30
0.0
 10
87.69628470712584
 20
128.421444223696
 30
0.0
 10
89.47534299507159
 20
128.421444223696
 30
0.0
 10
89.80243854228225
 20
128.421444223696
 30
0.0
 10
90.11644603427127
 20
128.456933667235
 30
0.0
 10
90.33866075082432
 20
128.5279125543131
 30
0.0
 10
90.33866075082432
 20
128.5279125543131
 30
0.0
 10
90.33590908422786
 20
129.7560730785357
 30
0.0
 10
90.33590908422786
 20
129.7560730785357
 30
0.0
 10
90.33590908422786
 20
129.7560730785357
 30
0.0
 10
90.33590908422786
 20
130.9308583263422
 30
0.0
 10
90.33590908422786
 20
130.9308583263422
 30
0.0
 10
90.33590908422786
 20
130.9308583263422
 30
0.0
 10
92.69355819074588
 20
130.9308583263422
 30
0.0
 10
92.69355819074588
 20
130.9308583263422
 30
0.0
 10
92.69355819074588
 20
130.9308583263422
 30
0.0
 10
92.69355819074588
 20
127.4781870255383
 30
0.0
 10
92.69355819074588
 20
127.4781870255383
 30
0.0
  0
SPLINE
  5
40D
330
3FD
100
AcDbEntity
  8
Ebene 1
370
     0
100
AcDbSpline
210
0.0
220
0.0
230
1.0
 70
     9
 71
     3
 72
    17
 73
    13
 74
     0
 42
0.000000001
 43
0.0000000001
 40
0.0
 40
0.0
 40
0.0
 40
0.0
 40
1.0
 40
1.0
 40
1.0
 40
2.0
 40
2.0
 40
2.0
 40
3.0
 40
3.0
 40
3.0
 40
4.0
 40
4.0
 40
4.0
 40
4.0
 10
103.9030365158794
 20
127.1932836994734
 30
0.0
 10
100.9202652030873
 20
127.1932836994734
 30
0.0
 10
99.32433385491407
 20
128.430404779023
 30
0.0
 10
99.32433385491407
 20
130.4058191730704
 30
0.0
 10
99.32433385491407
 20
132.3995074555405
 30
0.0
 10
100.8940916414431
 20
133.6183546466673
 30
0.0
 10
103.9030365158794
 20
133.6183546466673
 30
0.0
 10
106.9118075502303
 20
133.6183546466673
 30
0.0
 10
108.4815627879603
 20
132.3995074555405
 30
0.0
 10
108.4815627879603
 20
130.4058191730704
 30
0.0
 10
108.4815627879603
 20
128.430404779023
 30
0.0
 10
106.885631439787
 20
127.1932836994734
 30
0.0
 10
103.9030365158794
 20
127.1932836994734
 30
0.0
  0
POLYLINE
  5
40E
330
3FD
100
AcDbEntity
  8
Ebene 1
370
     0
100
AcDb2dPolyline
 66
     1
 10
0.0
 20
0.0
 30
0.0
  0
VERTEX
  5
40F
330
40E
100
AcDbEntity
  8
Ebene 1
370
     0
100
AcDbVertex
100
AcDb2dVertex
 10
121.2739196838223
 20
127.3000695300824
 30
0.0
  0
VERTEX
  5
410
330
40E
100
AcDbEntity
  8
Ebene 1
370
     0
100
AcDbVertex
100
AcDb2dVertex
 10
115.0730742864635
 20
127.3000695300824
 30
0.0
  0
VERTEX
  5
411
330
40E
100
AcDbEntity
  8
Ebene 1
370
     0
100
AcDbVertex
100
AcDb2dVertex
 10
115.0730742864635
 20
133.5115721888445
 30
0.0
  0
VERTEX
  5
412
330
40E
100
AcDbEntity
  8
Ebene 1
370
     0
100
AcDbVertex
100
AcDb2dVertex
 10
117.5066764465994
 20
133.5115721888445
 30
0.0
  0
VERTEX
  5
413
330
40E
100
AcDbEntity
  8
Ebene 1
370
     0
100
AcDbVertex
100
AcDb2dVertex
 10
117.5066764465994
 20
128.5279125543131
 30
0.0
  0
VERTEX
  5
414
330
40E
100
AcDbEntity
  8
Ebene 1
370
     0
100
AcDbVertex
100
AcDb2dVertex
 10
121.2739196838223
 20
128.5279125543131
 30
0.0
  0
VERTEX
  5
415
330
40E
100
AcDbEntity
  8
Ebene 1
370
     0
100
AcDbVertex
100
AcDb2dVertex
 10
121.2739196838223
 20
127.3000695300824
 30
0.0
  0
SEQEND
  5
416
330
40E
100
AcDbEntity
  8
Ebene 1
370
     0
  0
ENDBLK
  5
417
330
3FD
100
AcDbEntity
  8
0
100
AcDbBlockEnd
  0
ENDSEC
  0
SECTION
  2
ENTITIES
  0
LINE
  5
83
330
1F
100
AcDbEntity
  8
0
  6
HIDDEN2
 62
     7
100
AcDbLine
 10
332.254125
 20
352.80257
 30
0.0
 11
376.254125
 21
352.80257
 31
0.0
  0
LINE
  5
84
330
1F
100
AcDbEntity
  8
0
  6
Continuous
 62
     7
100
AcDbLine
 10
332.254125
 20
138.50257
 30
0.0
 11
332.254125
 21
352.80257
 31
0.0
  0
LINE
  5
85
330
1F
100
AcDbEntity
  8
0
  6
HIDDEN2
 62
     7
100
AcDbLine
 10
332.254125
 20
138.50257
 30
0.0
 11
376.254125
 21
138.50257
 31
0.0
  0
LINE
  5
86
330
1F
100
AcDbEntity
  8
0
  6
Continuous
 62
     7
100
AcDbLine
 10
259.850597
 20
352.80257
 30
0.0
 11
259.850597
 21
138.50257
 31
0.0
  0
LINE
  5
87
330
1F
100
AcDbEntity
  8
0
  6
HIDDEN2
 62
     7
100
AcDbLine
 10
259.850597
 20
138.50257
 30
0.0
 11
307.76743
 21
138.50257
 31
0.0
  0
LINE
  5
88
330
1F
100
AcDbEntity
  8
0
  6
Continuous
 62
     7
100
AcDbLine
 10
376.254125
 20
138.50257
 30
0.0
 11
376.254125
 21
352.80257
 31
0.0
  0
LINE
  5
89
330
1F
100
AcDbEntity
  8
0
  6
HIDDEN2
 62
     7
100
AcDbLine
 10
259.850597
 20
352.80257
 30
0.0
 11
307.76743
 21
352.80257
 31
0.0
  0
LINE
  5
8A
330
1F
100
AcDbEntity
  8
0
  6
Continuous
 62
     7
100
AcDbLine
 10
307.76743
 20
340.75257
 30
0.0
 11
307.76743
 21
138.50257
 31
0.0
  0
LINE
  5
8B
330
1F
100
AcDbEntity
  8
0
  6
Continuous
 62
     7
100
AcDbLine
 10
297.76743
 20
181.05257
 30
0.0
 11
297.76743
 21
150.55257
 31
0.0
  0
LINE
  5
8C
330
1F
100
AcDbEntity
  8
0
  6
Continuous
 62
     7
100
AcDbLine
 10
278.26743
 20
325.75257
 30
0.0
 11
278.26743
 21
165.55257
 31
0.0
  0
LINE
  5
8D
330
1F
100
AcDbEntity
  8
0
  6
Continuous
 62
     7
100
AcDbLine
 10
307.76743
 20
150.55257
 30
0.0
 11
297.76743
 21
150.55257
 31
0.0
  0
LINE
  5
8E
330
1F
100
AcDbEntity
  8
0
  6
Continuous
 62
     7
100
AcDbLine
 10
297.76743
 20
340.75257
 30
0.0
 11
297.76743
 21
310.25257
 31
0.0
  0
LINE
  5
8F
330
1F
100
AcDbEntity
  8
0
  6
Continuous
 62
     7
100
AcDbLine
 10
297.76743
 20
340.75257
 30
0.0
 11
307.76743
 21
340.75257
 31
0.0
  0
LINE
  5
90
330
1F
100
AcDbEntity
  8
0
  6
Continuous
 62
     7
100
AcDbLine
 10
307.76743
 20
150.55257
 30
0.0
 11
307.76743
 21
138.50257
 31
0.0
  0
LINE
  5
91
330
1F
100
AcDbEntity
  8
0
  6
Continuous
 62
     7
100
AcDbLine
 10
307.76743
 20
340.75257
 30
0.0
 11
307.76743
 21
352.80257
 31
0.0
  0
LINE
  5
93
330
1F
100
AcDbEntity
  8
0
  6
DASHDOT
 62
    70
100
AcDbLine
 10
356.654125
 20
128.47929
 30
0.0
 11
356.654125
 21
358.47929
 31
0.0
  0
MTEXT
  5
94
102
{ACAD_XDICTIONARY
360
551
102
}
330
1F
100
AcDbEntity
  8
0
  6
Continuous
 62
    70
100
AcDbMText
 10
295.554501
 20
98.00989600000001
 30
0.0
 40
5.0
 41
0.0
 46
0.0
 71
     1
 72
     1
  1
{\fTahoma|b0|i0|c0|p34;Fräsung Rahmen}
  7
DEFAULT
 73
     1
 44
1.0
  0
LINE
  5
95
330
1F
100
AcDbEntity
  8
CAMPITURA
  6
Continuous
 62
     7
100
AcDbLine
 10
372.254125
 20
166.15257
 30
0.0
 11
372.254125
 21
325.15257
 31
0.0
  0
LINE
  5
96
330
1F
100
AcDbEntity
  8
CAMPITURA
  6
Continuous
 62
     7
100
AcDbLine
 10
341.054125
 20
166.15257
 30
0.0
 11
341.054125
 21
325.15257
 31
0.0
  0
ARC
  5
97
330
1F
100
AcDbEntity
  8
0
  6
Continuous
 62
     7
100
AcDbCircle
 10
356.654125
 20
325.15257
 30
0.0
 40
15.6
100
AcDbArc
 50
0.0
 51
180.0
  0
ARC
  5
98
330
1F
100
AcDbEntity
  8
0
  6
Continuous
 62
     7
100
AcDbCircle
 10
356.654125
 20
166.15257
 30
0.0
 40
15.6
100
AcDbArc
 50
180.0
 51
0.0
  0
ARC
  5
99
330
1F
100
AcDbEntity
  8
0
  6
Continuous
 62
     7
100
AcDbCircle
 10
356.654125
 20
310.15257
 30
0.0
 40
15.6
100
AcDbArc
 50
0.0
 51
180.0
  0
ARC
  5
9A
330
1F
100
AcDbEntity
  8
0
  6
Continuous
 62
     7
100
AcDbCircle
 10
356.654125
 20
181.15257
 30
0.0
 40
15.6
100
AcDbArc
 50
180.0
 51
0.0
  0
LINE
  5
9B
330
1F
100
AcDbEntity
  8
0
  6
Continuous
 62
     7
100
AcDbLine
 10
297.76743
 20
325.75257
 30
0.0
 11
278.26743
 21
325.75257
 31
0.0
  0
LINE
  5
9C
330
1F
100
AcDbEntity
  8
0
  6
Continuous
 62
     7
100
AcDbLine
 10
297.76743
 20
165.55257
 30
0.0
 11
278.26743
 21
165.55257
 31
0.0
  0
LINE
  5
9D
330
1F
100
AcDbEntity
  8
0
  6
HIDDEN2
 62
     7
100
AcDbLine
 10
132.354125
 20
352.80257
 30
0.0
 11
172.354125
 21
352.80257
 31
0.0
  0
LINE
  5
9E
330
1F
100
AcDbEntity
  8
0
  6
Continuous
 62
     7
100
AcDbLine
 10
132.354125
 20
138.50257
 30
0.0
 11
132.354125
 21
352.80257
 31
0.0
  0
LINE
  5
9F
330
1F
100
AcDbEntity
  8
0
  6
HIDDEN2
 62
     7
100
AcDbLine
 10
132.354125
 20
138.50257
 30
0.0
 11
172.354125
 21
138.50257
 31
0.0
  0
LINE
  5
A0
330
1F
100
AcDbEntity
  8
0
  6
Continuous
 62
     7
100
AcDbLine
 10
59.850597
 20
352.80257
 30
0.0
 11
59.850597
 21
138.50257
 31
0.0
  0
LINE
  5
A1
330
1F
100
AcDbEntity
  8
0
  6
HIDDEN2
 62
     7
100
AcDbLine
 10
59.850597
 20
138.50257
 30
0.0
 11
107.76743
 21
138.50257
 31
0.0
  0
LINE
  5
A2
330
1F
100
AcDbEntity
  8
0
  6
Continuous
 62
     7
100
AcDbLine
 10
172.354125
 20
138.50257
 30
0.0
 11
172.354125
 21
352.80257
 31
0.0
  0
LINE
  5
A3
330
1F
100
AcDbEntity
  8
0
  6
HIDDEN2
 62
     7
100
AcDbLine
 10
59.850597
 20
352.80257
 30
0.0
 11
107.76743
 21
352.80257
 31
0.0
  0
LINE
  5
A4
330
1F
100
AcDbEntity
  8
0
  6
Continuous
 62
     7
100
AcDbLine
 10
107.76743
 20
340.75257
 30
0.0
 11
107.76743
 21
138.50257
 31
0.0
  0
LINE
  5
A5
330
1F
100
AcDbEntity
  8
0
  6
Continuous
 62
     7
100
AcDbLine
 10
97.66743000000001
 20
181.05257
 30
0.0
 11
97.66743000000001
 21
150.55257
 31
0.0
  0
LINE
  5
A6
330
1F
100
AcDbEntity
  8
0
  6
Continuous
 62
     7
100
AcDbLine
 10
107.76743
 20
150.55257
 30
0.0
 11
97.66743000000001
 21
150.55257
 31
0.0
  0
LINE
  5
A7
330
1F
100
AcDbEntity
  8
0
  6
Continuous
 62
     7
100
AcDbLine
 10
97.76743000000001
 20
340.75257
 30
0.0
 11
97.76743000000001
 21
310.25257
 31
0.0
  0
LINE
  5
A8
330
1F
100
AcDbEntity
  8
0
  6
Continuous
 62
     7
100
AcDbLine
 10
97.76743000000001
 20
340.75257
 30
0.0
 11
107.76743
 21
340.75257
 31
0.0
  0
LINE
  5
A9
330
1F
100
AcDbEntity
  8
0
  6
Continuous
 62
     7
100
AcDbLine
 10
107.76743
 20
340.75257
 30
0.0
 11
107.76743
 21
352.80257
 31
0.0
  0
LINE
  5
AA
330
1F
100
AcDbEntity
  8
0
  6
Continuous
 62
     7
100
AcDbLine
 10
97.76743000000001
 20
325.75257
 30
0.0
 11
72.26743
 21
325.75257
 31
0.0
  0
LINE
  5
AB
330
1F
100
AcDbEntity
  8
0
  6
Continuous
 62
     7
100
AcDbLine
 10
97.66743000000001
 20
165.55257
 30
0.0
 11
72.16743000000001
 21
165.55257
 31
0.0
  0
MTEXT
  5
AC
102
{ACAD_XDICTIONARY
360
553
102
}
330
1F
100
AcDbEntity
  8
0
  6
Continuous
 62
    70
100
AcDbMText
 10
90.04393099999999
 20
96.22722900000001
 30
0.0
 40
5.0
 41
0.0
 46
0.0
 71
     1
 72
     1
  1
{\fTahoma|b0|i0|c0|p34;Fräsung Flügel}
  7
DEFAULT
 73
     1
 44
1.0
  0
LINE
  5
AD
330
1F
100
AcDbEntity
  8
0
  6
Continuous
100
AcDbLine
 10
72.26743
 20
325.75257
 30
0.0
 11
72.16743000000001
 21
165.55257
 31
0.0
  0
HATCH
  5
AE
330
1F
100
AcDbEntity
  8
0
  6
Continuous
 62
    70
100
AcDbHatch
 10
0.0
 20
0.0
 30
0.0
210
0.0
220
0.0
230
1.0
  2
_USER
 70
     0
 71
     0
 91
        1
 92
        1
 93
       12
 72
     1
 10
259.8507092303962
 20
138.5025495629351
 11
307.767542442602
 21
138.5025495629351
 72
     1
 10
307.767542442602
 20
138.502549562935
 11
307.767542442602
 21
150.5525495629352
 72
     1
 10
307.767542442602
 20
150.5525495629352
 11
297.7675424426025
 21
150.5525495629352
 72
     1
 10
297.7675424426025
 20
150.5525495629352
 11
297.7675424426025
 21
165.5525495629352
 72
     1
 10
297.7675424426025
 20
165.5525495629352
 11
278.267542442602
 21
165.5525495629352
 72
     1
 10
278.267542442602
 20
165.5525495629352
 11
278.267542442602
 21
325.7525495629352
 72
     1
 10
278.267542442602
 20
325.7525495629352
 11
297.7675424426025
 21
325.7525495629352
 72
     1
 10
297.7675424426025
 20
325.7525495629352
 11
297.7675424426025
 21
340.7525495629352
 72
     1
 10
297.7675424426025
 20
340.7525495629352
 11
307.7675424426025
 21
340.7525495629352
 72
     1
 10
307.767542442602
 20
340.7525495629352
 11
307.767542442602
 21
352.8025495629353
 72
     1
 10
307.767542442602
 20
352.802549562935
 11
259.8507092303962
 21
352.802549562935
 72
     1
 10
259.8507092303971
 20
352.802549562935
 11
259.8507092303971
 21
138.5025495629351
 97
        0
 75
     0
 76
     0
 52
45.0
 41
5.4
 77
     0
 78
     1
 53
44.99999999988836
 43
0.0
 44
0.0
 45
-3.818376685834875
 46
3.818376685849753
 79
     0
 98
        0
  0
HATCH
  5
AF
330
1F
100
AcDbEntity
  8
0
  6
Continuous
 62
    70
100
AcDbHatch
 10
0.0
 20
0.0
 30
0.0
210
0.0
220
0.0
230
1.0
  2
_USER
 70
     0
 71
     0
 91
        1
 92
        1
 93
       12
 72
     1
 10
59.85070923039621
 20
138.5025495629351
 11
107.767542442602
 21
138.5025495629351
 72
     1
 10
107.767542442602
 20
138.502549562935
 11
107.6675424426021
 21
150.5525495629352
 72
     1
 10
107.6675424426021
 20
150.5525495629352
 11
97.66754244260255
 21
150.5525495629352
 72
     1
 10
97.66754244260255
 20
150.5525495629352
 11
97.66754244260255
 21
165.5525495629352
 72
     1
 10
97.66754244260255
 20
165.5525495629352
 11
72.16754244260208
 21
165.5525495629352
 72
     1
 10
72.16754244260208
 20
165.5525495629352
 11
72.26754244260202
 21
325.7525495629352
 72
     1
 10
72.26754244260202
 20
325.7525495629352
 11
97.76754244260246
 21
325.7525495629352
 72
     1
 10
97.76754244260246
 20
325.7525495629352
 11
97.76754244260246
 21
340.7525495629352
 72
     1
 10
97.76754244260246
 20
340.7525495629352
 11
107.7675424426025
 21
340.7525495629352
 72
     1
 10
107.767542442602
 20
340.7525495629352
 11
107.767542442602
 21
352.8025495629353
 72
     1
 10
107.767542442602
 20
352.802549562935
 11
59.85070923039621
 21
352.802549562935
 72
     1
 10
59.8507092303971
 20
352.802549562935
 11
59.8507092303971
 21
138.5025495629351
 97
        0
 75
     0
 76
     0
 52
45.0
 41
5.4
 77
     0
 78
     1
 53
44.99999999988836
 43
0.0
 44
0.0
 45
-3.818376685834875
 46
3.818376685849753
 79
     0
 98
        0
  0
LINE
  5
B0
330
1F
100
AcDbEntity
  8
0
  6
Continuous
 62
    70
100
AcDbLine
 10
491.4283799999999
 20
356.069311
 30
0.0
 11
491.4283799999999
 21
239.069308
 31
0.0
  0
LINE
  5
B1
330
1F
100
AcDbEntity
  8
0
  6
Continuous
 62
    70
100
AcDbLine
 10
520.484765
 20
356.058338
 30
0.0
 11
520.484765
 21
239.058335
 31
0.0
  0
LINE
  5
B2
330
1F
100
AcDbEntity
  8
0
  6
Continuous
 62
    70
100
AcDbLine
 10
535.012957
 20
347.052852
 30
0.0
 11
491.4283799999999
 21
347.069311
 31
0.0
  0
LINE
  5
B3
330
1F
100
AcDbEntity
  8
0
  6
Continuous
 62
    70
100
AcDbLine
 10
535.012957
 20
293.052852
 30
0.0
 11
491.4283799999999
 21
293.0693109999999
 31
0.0
  0
LINE
  5
B4
330
1F
100
AcDbEntity
  8
0
  6
Continuous
 62
    70
100
AcDbLine
 10
535.012957
 20
302.052852
 30
0.0
 11
491.4283799999999
 21
302.069311
 31
0.0
  0
LINE
  5
B5
330
1F
100
AcDbEntity
  8
0
  6
Continuous
 62
    70
100
AcDbLine
 10
535.012957
 20
311.052852
 30
0.0
 11
491.4283799999999
 21
311.069311
 31
0.0
  0
LINE
  5
B6
330
1F
100
AcDbEntity
  8
0
  6
Continuous
 62
    70
100
AcDbLine
 10
535.012957
 20
320.052852
 30
0.0
 11
491.4283799999999
 21
320.069311
 31
0.0
  0
LINE
  5
B7
330
1F
100
AcDbEntity
  8
0
  6
Continuous
 62
    70
100
AcDbLine
 10
535.012957
 20
329.052852
 30
0.0
 11
491.4283799999999
 21
329.069311
 31
0.0
  0
LINE
  5
B8
330
1F
100
AcDbEntity
  8
0
  6
Continuous
 62
    70
100
AcDbLine
 10
535.012957
 20
338.052852
 30
0.0
 11
491.4283799999999
 21
338.069311
 31
0.0
  0
LINE
  5
B9
330
1F
100
AcDbEntity
  8
0
  6
Continuous
 62
    70
100
AcDbLine
 10
535.012957
 20
356.052852
 30
0.0
 11
491.4283799999999
 21
356.069311
 31
0.0
  0
LINE
  5
BA
330
1F
100
AcDbEntity
  8
0
  6
Continuous
 62
    70
100
AcDbLine
 10
535.012957
 20
356.052852
 30
0.0
 11
491.4283799999999
 21
356.069311
 31
0.0
  0
LINE
  5
BB
330
1F
100
AcDbEntity
  8
0
  6
Continuous
 62
    70
100
AcDbLine
 10
505.956572
 20
356.063825
 30
0.0
 11
505.956572
 21
239.063821
 31
0.0
  0
LINE
  5
BC
330
1F
100
AcDbEntity
  8
0
  6
Continuous
 62
    70
100
AcDbLine
 10
535.012957
 20
356.052852
 30
0.0
 11
535.012957
 21
239.052848
 31
0.0
  0
MTEXT
  5
BD
330
1F
100
AcDbEntity
  8
0
  6
Continuous
 62
    70
100
AcDbMText
 10
495.680148
 20
354.481506
 30
0.0
 40
4.2
 41
0.0
 46
0.0
 71
     1
 72
     1
  1
{\fTahoma|b0|i0|c0|p34;TS}
  7
DEFAULT
 73
     1
 44
1.0
  0
TEXT
  5
BE
330
1F
100
AcDbEntity
  8
0
  6
Continuous
 62
    70
100
AcDbText
 10
495.75886
 20
340.956166
 30
0.0
 40
3.5
  1
40
  7
DEFAULT
100
AcDbText
  0
TEXT
  5
BF
330
1F
100
AcDbEntity
  8
0
  6
Continuous
 62
    70
100
AcDbText
 10
495.75886
 20
304.956166
 30
0.0
 40
3.5
  1
42
  7
DEFAULT
100
AcDbText
  0
TEXT
  5
C0
330
1F
100
AcDbEntity
  8
0
  6
Continuous
 62
    70
100
AcDbText
 10
495.75886
 20
286.956166
 30
0.0
 40
3.5
  1
43
  7
DEFAULT
100
AcDbText
  0
TEXT
  5
C1
330
1F
100
AcDbEntity
  8
0
  6
Continuous
 62
    70
100
AcDbText
 10
495.7486639999999
 20
268.956168
 30
0.0
 40
3.5
  1
44
  7
DEFAULT
100
AcDbText
  0
TEXT
  5
C2
330
1F
100
AcDbEntity
  8
0
  6
Continuous
 62
    70
100
AcDbText
 10
525.213332
 20
304.950697
 30
0.0
 40
3.5
  1
7
  7
DEFAULT
100
AcDbText
  0
TEXT
  5
C3
330
1F
100
AcDbEntity
  8
0
  6
Continuous
 62
    70
100
AcDbText
 10
525.287053
 20
322.950679
 30
0.0
 40
3.5
  1
6
  7
DEFAULT
100
AcDbText
  0
TEXT
  5
C4
330
1F
100
AcDbEntity
  8
0
  6
Continuous
 62
    70
100
AcDbText
 10
525.0969309999999
 20
340.950654
 30
0.0
 40
3.5
  1
5
  7
DEFAULT
100
AcDbText
  0
TEXT
  5
C5
330
1F
100
AcDbEntity
  8
0
  6
Continuous
 62
    70
100
AcDbText
 10
525.202853
 20
287.198798
 30
0.0
 40
3.5
  1
8
  7
DEFAULT
100
AcDbText
  0
TEXT
  5
C6
330
1F
100
AcDbEntity
  8
0
  6
Continuous
 62
    70
100
AcDbText
 10
525.424174
 20
269.074758
 30
0.0
 40
3.5
  1
9
  7
DEFAULT
100
AcDbText
  0
MTEXT
  5
C7
330
1F
100
AcDbEntity
  8
0
  6
Continuous
 62
    70
100
AcDbMText
 10
511.383457
 20
354.39034
 30
0.0
 40
4.2
 41
0.0
 46
0.0
 71
     1
 72
     1
  1
{\fTahoma|b0|i0|c0|p0;F}
  7
DEFAULT
 73
     1
 44
1.0
  0
MTEXT
  5
C8
330
1F
100
AcDbEntity
  8
0
  6
Continuous
 62
    70
100
AcDbMText
 10
525.91165
 20
354.39034
 30
0.0
 40
4.2
 41
0.0
 46
0.0
 71
     1
 72
     1
  1
{\fTahoma|b0|i0|c0|p0;G}
  7
DEFAULT
 73
     1
 44
1.0
  0
TEXT
  5
C9
330
1F
100
AcDbEntity
  8
0
  6
Continuous
 62
    70
100
AcDbText
 10
495.741866
 20
250.956169
 30
0.0
 40
3.5
  1
45
  7
DEFAULT
100
AcDbText
  0
TEXT
  5
CA
330
1F
100
AcDbEntity
  8
0
  6
Continuous
 62
    70
100
AcDbText
 10
525.0454480000001
 20
250.826675
 30
0.0
 40
3.5
  1
10
  7
DEFAULT
100
AcDbText
  0
LINE
  5
CB
330
1F
100
AcDbEntity
  8
0
  6
Continuous
 62
     7
100
AcDbLine
 10
443.385894
 20
144.783767
 30
0.0
 11
529.459779
 21
144.783767
 31
0.0
  0
LINE
  5
CC
330
1F
100
AcDbEntity
  8
0
  6
Continuous
 62
     7
100
AcDbLine
 10
529.459779
 20
144.783767
 30
0.0
 11
529.459779
 21
184.783767
 31
0.0
  0
LINE
  5
CD
330
1F
100
AcDbEntity
  8
0
  6
Continuous
 62
     7
100
AcDbLine
 10
529.459779
 20
184.783767
 30
0.0
 11
443.385894
 21
184.783767
 31
0.0
  0
LINE
  5
CE
330
1F
100
AcDbEntity
  8
0
  6
Continuous
 62
     7
100
AcDbLine
 10
532.459779
 20
189.733767
 30
0.0
 11
522.5297789999999
 21
189.733767
 31
0.0
  0
LINE
  5
CF
330
1F
100
AcDbEntity
  8
0
  6
Continuous
 62
     7
100
AcDbLine
 10
522.5297789999999
 20
189.733767
 30
0.0
 11
522.5297789999999
 21
223.952154
 31
0.0
  0
LINE
  5
D0
330
1F
100
AcDbEntity
  8
0
  6
Continuous
 62
     7
100
AcDbLine
 10
532.459779
 20
189.733767
 30
0.0
 11
532.459779
 21
144.783767
 31
0.0
  0
LINE
  5
D1
330
1F
100
AcDbEntity
  8
0
  6
Continuous
 62
     7
100
AcDbLine
 10
532.459779
 20
144.783767
 30
0.0
 11
572.129779
 21
144.783767
 31
0.0
  0
LINE
  5
D2
330
1F
100
AcDbEntity
  8
0
  6
Continuous
 62
     7
100
AcDbLine
 10
572.129779
 20
144.783767
 30
0.0
 11
572.129779
 21
223.952154
 31
0.0
  0
LINE
  5
D3
330
1F
100
AcDbEntity
  8
1
  6
CENTER2
 62
    70
100
AcDbLine
 10
522.5297789999999
 20
223.952154
 30
0.0
 11
572.129779
 21
223.952154
 31
0.0
  0
LINE
  5
D4
330
1F
100
AcDbEntity
  8
0
  6
HIDDEN2
 62
    70
100
AcDbLine
 10
529.459779
 20
148.783767
 30
0.0
 11
493.959779
 21
148.783767
 31
0.0
  0
LINE
  5
D5
330
1F
100
AcDbEntity
  8
0
  6
HIDDEN2
 62
    70
100
AcDbLine
 10
493.959779
 20
148.783767
 30
0.0
 11
493.959779
 21
179.783767
 31
0.0
  0
LINE
  5
D6
330
1F
100
AcDbEntity
  8
0
  6
HIDDEN2
 62
    70
100
AcDbLine
 10
561.959779
 20
179.783767
 30
0.0
 11
561.959779
 21
148.783767
 31
0.0
  0
LINE
  5
D7
330
1F
100
AcDbEntity
  8
0
  6
HIDDEN2
 62
    70
100
AcDbLine
 10
522.5297789999999
 20
148.783767
 30
0.0
 11
522.5297789999999
 21
179.783767
 31
0.0
  0
LINE
  5
D8
330
1F
100
AcDbEntity
  8
0
  6
HIDDEN2
 62
    70
100
AcDbLine
 10
539.3897789999999
 20
179.783767
 30
0.0
 11
539.3897789999999
 21
148.783767
 31
0.0
  0
LINE
  5
D9
330
1F
100
AcDbEntity
  8
0
  6
HIDDEN2
 62
    70
100
AcDbLine
 10
532.459779
 20
179.783767
 30
0.0
 11
561.959779
 21
179.783767
 31
0.0
  0
LINE
  5
DA
330
1F
100
AcDbEntity
  8
0
  6
HIDDEN2
 62
    70
100
AcDbLine
 10
561.959779
 20
148.783767
 30
0.0
 11
532.459779
 21
148.783767
 31
0.0
  0
LINE
  5
DB
330
1F
100
AcDbEntity
  8
0
  6
HIDDEN2
 62
    70
100
AcDbLine
 10
493.959779
 20
179.783767
 30
0.0
 11
529.459779
 21
179.783767
 31
0.0
  0
LINE
  5
DC
330
1F
100
AcDbEntity
  8
0
  6
Continuous
 62
     7
100
AcDbLine
 10
522.5297789999999
 20
187.591824
 30
0.0
 11
527.479779
 21
184.783767
 31
0.0
  0
LINE
  5
DD
330
1F
100
AcDbEntity
  8
0
  6
Continuous
 62
     7
100
AcDbLine
 10
527.479779
 20
184.783767
 30
0.0
 11
532.459779
 21
187.591824
 31
0.0
  0
LINE
  5
DE
330
1F
100
AcDbEntity
  8
0
  6
Continuous
 62
     7
100
AcDbLine
 10
522.5297789999999
 20
187.591824
 30
0.0
 11
522.5297789999999
 21
189.733767
 31
0.0
  0
MTEXT
  5
DF
102
{ACAD_XDICTIONARY
360
555
102
}
330
1F
100
AcDbEntity
  8
0
  6
Continuous
 62
    70
100
AcDbMText
 10
445.9451767974424
 20
166.4722966272174
 30
0.0
 40
4.62
 41
0.0
 46
0.0
 71
     1
 72
     1
  1
{\fTahoma|b0|i0|c0|p34;Flügel}
  7
DEFAULT
 73
     1
 44
1.0
  0
MTEXT
  5
E0
330
1F
100
AcDbEntity
  8
0
  6
Continuous
 62
    70
100
AcDbMText
 10
537.5503478931441
 20
215.393466
 30
0.0
 40
4.62
 41
0.0
 46
0.0
 71
     1
 72
     1
  1
{\fTahoma|b0|i0|c0|p34;Rahmen}
  7
DEFAULT
 73
     1
 44
1.0
  0
HATCH
  5
E1
330
1F
100
AcDbEntity
  8
0
  6
Continuous
 62
     7
100
AcDbHatch
 10
0.0
 20
0.0
 30
0.0
210
0.0
220
0.0
230
1.0
  2
SOLID
 70
     1
 71
     0
 91
        1
 92
        1
 93
        5
 72
     1
 10
522.5298989645826
 20
189.7337445502583
 11
522.5298989645826
 21
187.591801296823
 72
     1
 10
522.5298989645826
 20
187.5918012968231
 11
527.4798989645823
 21
184.7837445502583
 72
     1
 10
527.4798989645823
 20
184.7837445502582
 11
532.4598989645819
 21
187.591801296823
 72
     1
 10
532.4598989645828
 20
187.5918012968231
 11
532.4598989645828
 21
189.7337445502583
 72
     1
 10
532.4598989645828
 20
189.7337445502583
 11
522.5298989645835
 21
189.7337445502583
 97
        0
 75
     0
 76
     1
 98
        0
450
        0
451
        0
460
0.0
461
0.0
452
        0
462
0.0
453
        0
470

  0
TEXT
  5
E2
330
1F
100
AcDbEntity
  8
0
  6
Continuous
 62
    70
100
AcDbText
 10
510.7588599999999
 20
340.956166
 30
0.0
 40
3.5
  1
4
  7
DEFAULT
100
AcDbText
  0
TEXT
  5
E3
330
1F
100
AcDbEntity
  8
0
  6
Continuous
 62
    70
100
AcDbText
 10
495.75886
 20
322.956166
 30
0.0
 40
3.5
  1
41
  7
DEFAULT
100
AcDbText
  0
TEXT
  5
E4
330
1F
100
AcDbEntity
  8
0
  6
Continuous
 62
    70
100
AcDbText
 10
510.7588599999999
 20
322.956166
 30
0.0
 40
3.5
  1
4
  7
DEFAULT
100
AcDbText
  0
TEXT
  5
E5
330
1F
100
AcDbEntity
  8
0
  6
Continuous
 62
    70
100
AcDbText
 10
510.7588599999999
 20
304.956166
 30
0.0
 40
3.5
  1
4
  7
DEFAULT
100
AcDbText
  0
TEXT
  5
E6
330
1F
100
AcDbEntity
  8
0
  6
Continuous
 62
    70
100
AcDbText
 10
510.7588599999999
 20
286.956166
 30
0.0
 40
3.5
  1
4
  7
DEFAULT
100
AcDbText
  0
TEXT
  5
E7
330
1F
100
AcDbEntity
  8
0
  6
Continuous
 62
    70
100
AcDbText
 10
510.7486639999999
 20
268.956168
 30
0.0
 40
3.5
  1
4
  7
DEFAULT
100
AcDbText
  0
TEXT
  5
E8
330
1F
100
AcDbEntity
  8
0
  6
Continuous
 62
    70
100
AcDbText
 10
510.741866
 20
250.956169
 30
0.0
 40
3.5
  1
4
  7
DEFAULT
100
AcDbText
  0
TEXT
  5
E9
330
1F
100
AcDbEntity
  8
0
  6
Continuous
 62
    70
100
AcDbText
 10
495.75886
 20
331.956166
 30
0.0
 40
3.5
  1
40
  7
DEFAULT
100
AcDbText
  0
TEXT
  5
EA
330
1F
100
AcDbEntity
  8
0
  6
Continuous
 62
    70
100
AcDbText
 10
495.75886
 20
295.956166
 30
0.0
 40
3.5
  1
42
  7
DEFAULT
100
AcDbText
  0
TEXT
  5
EB
330
1F
100
AcDbEntity
  8
0
  6
Continuous
 62
    70
100
AcDbText
 10
495.75886
 20
277.956164
 30
0.0
 40
3.5
  1
43
  7
DEFAULT
100
AcDbText
  0
TEXT
  5
EC
330
1F
100
AcDbEntity
  8
0
  6
Continuous
 62
    70
100
AcDbText
 10
495.75886
 20
259.956163
 30
0.0
 40
3.5
  1
44
  7
DEFAULT
100
AcDbText
  0
TEXT
  5
ED
330
1F
100
AcDbEntity
  8
0
  6
Continuous
 62
    70
100
AcDbText
 10
525.213332
 20
295.9506970000001
 30
0.0
 40
3.5
  1
6
  7
DEFAULT
100
AcDbText
  0
TEXT
  5
EE
330
1F
100
AcDbEntity
  8
0
  6
Continuous
 62
    70
100
AcDbText
 10
525.287053
 20
313.950679
 30
0.0
 40
3.5
  1
5
  7
DEFAULT
100
AcDbText
  0
TEXT
  5
EF
330
1F
100
AcDbEntity
  8
0
  6
Continuous
 62
    70
100
AcDbText
 10
525.0969309999999
 20
331.950654
 30
0.0
 40
3.5
  1
4
  7
DEFAULT
100
AcDbText
  0
TEXT
  5
F0
330
1F
100
AcDbEntity
  8
0
  6
Continuous
 62
    70
100
AcDbText
 10
525.202853
 20
278.198797
 30
0.0
 40
3.5
  1
7
  7
DEFAULT
100
AcDbText
  0
TEXT
  5
F1
330
1F
100
AcDbEntity
  8
0
  6
Continuous
 62
    70
100
AcDbText
 10
525.4343709999999
 20
260.074753
 30
0.0
 40
3.5
  1
8
  7
DEFAULT
100
AcDbText
  0
TEXT
  5
F2
330
1F
100
AcDbEntity
  8
0
  6
Continuous
 62
    70
100
AcDbText
 10
495.75886
 20
241.956162
 30
0.0
 40
3.5
  1
45
  7
DEFAULT
100
AcDbText
  0
TEXT
  5
F3
330
1F
100
AcDbEntity
  8
0
  6
Continuous
 62
    70
100
AcDbText
 10
525.062442
 20
241.826668
 30
0.0
 40
3.5
  1
9
  7
DEFAULT
100
AcDbText
  0
TEXT
  5
F4
330
1F
100
AcDbEntity
  8
0
  6
Continuous
 62
    70
100
AcDbText
 10
510.7588599999999
 20
331.956166
 30
0.0
 40
3.5
  1
5
  7
DEFAULT
100
AcDbText
  0
TEXT
  5
F5
330
1F
100
AcDbEntity
  8
0
  6
Continuous
 62
    70
100
AcDbText
 10
495.75886
 20
313.956166
 30
0.0
 40
3.5
  1
41
  7
DEFAULT
100
AcDbText
  0
TEXT
  5
F6
330
1F
100
AcDbEntity
  8
0
  6
Continuous
 62
    70
100
AcDbText
 10
510.7588599999999
 20
313.956166
 30
0.0
 40
3.5
  1
5
  7
DEFAULT
100
AcDbText
  0
TEXT
  5
F7
330
1F
100
AcDbEntity
  8
0
  6
Continuous
 62
    70
100
AcDbText
 10
510.7588599999999
 20
295.956166
 30
0.0
 40
3.5
  1
5
  7
DEFAULT
100
AcDbText
  0
TEXT
  5
F8
330
1F
100
AcDbEntity
  8
0
  6
Continuous
 62
    70
100
AcDbText
 10
510.7588599999999
 20
277.956164
 30
0.0
 40
3.5
  1
5
  7
DEFAULT
100
AcDbText
  0
TEXT
  5
F9
330
1F
100
AcDbEntity
  8
0
  6
Continuous
 62
    70
100
AcDbText
 10
510.7588599999999
 20
259.956163
 30
0.0
 40
3.5
  1
5
  7
DEFAULT
100
AcDbText
  0
TEXT
  5
FA
330
1F
100
AcDbEntity
  8
0
  6
Continuous
 62
    70
100
AcDbText
 10
510.7588599999999
 20
241.956162
 30
0.0
 40
3.5
  1
5
  7
DEFAULT
100
AcDbText
  0
DIMENSION
  5
FC
330
1F
100
AcDbEntity
  8
0
  6
Continuous
 62
     7
100
AcDbDimension
280
     0
  2
*D1
 10
423.0
 20
150.55257
 30
0.0
 11
423.0
 21
245.652557
 31
0.0
 70
   161
  1
<>
 71
     5
 42
-1.0
 73
     0
 74
     0
 75
     0
  3
ISO-25
100
AcDbAlignedDimension
 13
356.654125
 23
340.75257
 33
0.0
 14
356.654125
 24
150.55257
 34
0.0
1001
ACAD
1000
DSTYLE
1002
{
1070
   287
1070
     3
1070
     7
1000

1070
     6
1000

1070
   280
1070
     0
1070
    76
1070
     0
1070
    75
1070
     0
1070
   279
1070
     0
1070
    41
1040
4.0
1070
    44
1040
2.0
1070
    42
1040
1.199999999999999
1070
   147
1040
2.0
1070
     3
1000

1070
    71
1070
     1
1070
    47
1040
0.2
1070
   140
1040
4.0
1002
}
  0
DIMENSION
  5
109
330
1F
100
AcDbEntity
  8
0
  6
Continuous
 62
     7
100
AcDbDimension
280
     0
  2
*D2
 10
403.000031
 20
165.55257
 30
0.0
 11
403.000031
 21
245.652557
 31
0.0
 70
   161
  1
<>
 71
     5
 42
-1.0
 73
     0
 74
     0
 75
     0
  3
ISO-25
100
AcDbAlignedDimension
 13
356.654125
 23
325.75257
 33
0.0
 14
356.654125
 24
165.55257
 34
0.0
1001
ACAD
1000
DSTYLE
1002
{
1070
   287
1070
     3
1070
     7
1000

1070
     6
1000

1070
   280
1070
     0
1070
    76
1070
     0
1070
    75
1070
     0
1070
   279
1070
     0
1070
    41
1040
4.0
1070
    44
1040
2.0
1070
    42
1040
1.199999999999999
1070
   147
1040
2.0
1070
     3
1000

1070
    71
1070
     1
1070
    47
1040
0.2
1070
   140
1040
4.0
1002
}
  0
LINE
  5
116
330
1F
100
AcDbEntity
  8
1
  6
CENTER2
 62
    70
100
AcDbLine
 10
443.385894
 20
184.783767
 30
0.0
 11
443.385894
 21
144.783767
 31
0.0
  0
DIMENSION
  5
117
330
1F
100
AcDbEntity
  8
0
  6
Continuous
 62
     7
100
AcDbDimension
280
     0
  2
*D3
 10
376.254125
 20
290.050903
 30
0.0
 11
387.49222
 21
290.050903
 31
0.0
 70
   160
  1
F
 71
     5
 42
-1.0
 73
     0
 74
     0
 75
     0
  3
ISO-25
100
AcDbAlignedDimension
 13
372.254125
 23
325.15257
 33
0.0
 14
376.254125
 24
352.80257
 34
0.0
100
AcDbRotatedDimension
1001
ACAD
1000
DSTYLE
1002
{
1070
   287
1070
     3
1070
   279
1070
     0
1070
    41
1040
4.0
1070
    44
1040
2.0
1070
    42
1040
1.199999999999999
1070
   147
1040
2.0
1070
   140
1040
4.0
1002
}
  0
DIMENSION
  5
127
330
1F
100
AcDbEntity
  8
0
  6
Continuous
 62
     7
100
AcDbDimension
280
     0
  2
*D4
 10
307.76743
 20
370.0
 30
0.0
 11
325.176954
 21
370.0
 31
0.0
 70
   160
  1
<>
 71
     5
 42
-1.0
 73
     0
 74
     0
 75
     0
  3
ISO-25
100
AcDbAlignedDimension
 13
297.76743
 23
340.75257
 33
0.0
 14
307.76743
 24
352.80257
 34
0.0
100
AcDbRotatedDimension
1001
ACAD
1000
DSTYLE
1002
{
1070
   287
1070
     3
1070
   279
1070
     0
1070
    41
1040
4.0
1070
    44
1040
2.0
1070
    42
1040
1.199999999999999
1070
   147
1040
2.0
1070
     3
1000

1070
    71
1070
     1
1070
    47
1040
0.2
1070
   140
1040
4.0
1002
}
  0
DIMENSION
  5
137
330
1F
100
AcDbEntity
  8
0
  6
Continuous
 62
     7
100
AcDbDimension
280
     0
  2
*D5
 10
278.26743
 20
390.0
 30
0.0
 11
293.017456
 21
390.0
 31
0.0
 70
   160
  1
<>
 71
     5
 42
-1.0
 73
     0
 74
     0
 75
     0
  3
ISO-25
100
AcDbAlignedDimension
 13
307.76743
 23
352.80257
 33
0.0
 14
278.26743
 24
325.75257
 34
0.0
100
AcDbRotatedDimension
1001
ACAD
1000
DSTYLE
1002
{
1070
   287
1070
     3
1070
     7
1000

1070
     6
1000

1070
   280
1070
     0
1070
    76
1070
     0
1070
    75
1070
     0
1070
   279
1070
     0
1070
    41
1040
4.0
1070
    44
1040
2.0
1070
    42
1040
1.199999999999999
1070
   147
1040
2.0
1070
     3
1000

1070
    71
1070
     1
1070
    47
1040
0.5
1070
   140
1040
4.0
1002
}
  0
DIMENSION
  5
144
330
1F
100
AcDbEntity
  8
0
  6
Continuous
 62
     7
100
AcDbDimension
280
     0
  2
*D6
 10
97.76743000000001
 20
370.0
 30
0.0
 11
80.35790699999999
 21
370.0
 31
0.0
 70
   160
  1
<>
 71
     5
 42
-1.0
 73
     0
 74
     0
 75
     0
  3
ISO-25
100
AcDbAlignedDimension
 13
107.76743
 23
352.80257
 33
0.0
 14
97.76743000000001
 24
340.75257
 34
0.0
100
AcDbRotatedDimension
1001
ACAD
1000
DSTYLE
1002
{
1070
   287
1070
     3
1070
     7
1000

1070
     6
1000

1070
   280
1070
     0
1070
    76
1070
     0
1070
    75
1070
     0
1070
   279
1070
     0
1070
    41
1040
4.0
1070
    44
1040
2.0
1070
    42
1040
1.199999999999999
1070
   147
1040
2.0
1070
     3
1000

1070
    71
1070
     1
1070
    47
1040
0.2
1070
   140
1040
4.0
1002
}
  0
DIMENSION
  5
154
330
1F
100
AcDbEntity
  8
0
  6
Continuous
 62
     7
100
AcDbDimension
280
     0
  2
*D7
 10
72.26743
 20
390.0
 30
0.0
 11
90.01743299999999
 21
390.0
 31
0.0
 70
   160
  1
<>
 71
     5
 42
-1.0
 73
     0
 74
     0
 75
     0
  3
ISO-25
100
AcDbAlignedDimension
 13
107.76743
 23
352.80257
 33
0.0
 14
72.26743
 24
325.75257
 34
0.0
100
AcDbRotatedDimension
1001
ACAD
1000
DSTYLE
1002
{
1070
   287
1070
     3
1070
     7
1000

1070
     6
1000

1070
   280
1070
     0
1070
    76
1070
     0
1070
    75
1070
     0
1070
   279
1070
     0
1070
    41
1040
4.0
1070
    44
1040
2.0
1070
    42
1040
1.199999999999999
1070
   147
1040
2.0
1070
     3
1000

1070
    71
1070
     1
1070
    47
1040
0.5
1070
   140
1040
4.0
1002
}
  0
DIMENSION
  5
161
330
1F
100
AcDbEntity
  8
0
  6
Continuous
 62
     7
100
AcDbDimension
280
     0
  2
*D8
 10
482.010437
 20
144.783767
 30
0.0
 11
482.010437
 21
133.545672
 31
0.0
 70
   160
  1
F
 71
     5
 42
-1.0
 73
     0
 74
     0
 75
     0
  3
ISO-25
100
AcDbAlignedDimension
 13
493.959779
 23
148.783767
 33
0.0
 14
443.385894
 24
144.783767
 34
0.0
 50
90.0
100
AcDbRotatedDimension
1001
ACAD
1000
DSTYLE
1002
{
1070
   287
1070
     3
1070
     7
1000

1070
     6
1000

1070
   280
1070
     0
1070
    76
1070
     0
1070
    75
1070
     0
1070
   279
1070
     0
1070
    41
1040
4.0
1070
    44
1040
2.0
1070
    42
1040
1.199999999999999
1070
   147
1040
2.0
1070
   140
1040
4.0
1002
}
  0
DIMENSION
  5
171
330
1F
100
AcDbEntity
  8
0
  6
Continuous
 62
     7
100
AcDbDimension
280
     0
  2
*D9
 10
482.010437
 20
179.783767
 30
0.0
 11
482.010437
 21
196.212338
 31
0.0
 70
   160
  1
G
 71
     5
 42
-1.0
 73
     0
 74
     0
 75
     0
  3
ISO-25
100
AcDbAlignedDimension
 13
443.385894
 23
184.783767
 33
0.0
 14
493.959779
 24
179.783767
 34
0.0
 50
90.0
100
AcDbRotatedDimension
1001
ACAD
1000
DSTYLE
1002
{
1070
   287
1070
     3
1070
     7
1000

1070
     6
1000

1070
   280
1070
     0
1070
    76
1070
     0
1070
    75
1070
     0
1070
   279
1070
     0
1070
    41
1040
4.0
1070
    44
1040
2.0
1070
    42
1040
1.199999999999999
1070
   147
1040
2.0
1070
   140
1040
4.0
1002
}
  0
DIMENSION
  5
181
330
1F
100
AcDbEntity
  8
0
  6
Continuous
 62
     7
100
AcDbDimension
280
     0
  2
*D10
 10
471.428162
 20
144.783767
 30
0.0
 11
471.428162
 21
164.783768
 31
0.0
 70
   161
  1
TS
 71
     5
 42
40.0
 73
     0
 74
     0
 75
     0
  3
ISO-25
100
AcDbAlignedDimension
 13
443.385894
 23
184.783767
 33
0.0
 14
443.385894
 24
144.783767
 34
0.0
1001
ACAD
1000
DSTYLE
1002
{
1070
   287
1070
     3
1070
     7
1000

1070
     6
1000

1070
   280
1070
     0
1070
    76
1070
     0
1070
    75
1070
     0
1070
   279
1070
     0
1070
    41
1040
4.0
1070
    44
1040
2.0
1070
    42
1040
1.199999999999999
1070
   147
1040
2.0
1070
   140
1040
4.0
1002
}
  0
INSERT
  5
199
330
1F
100
AcDbEntity
  8
0
  6
Continuous
 62
     7
100
AcDbBlockReference
  2
FORMAT
 10
0.0
 20
0.0
 30
0.0
  0
DIMENSION
  5
19A
330
1F
100
AcDbEntity
  8
0
  6
Continuous
 62
     7
100
AcDbDimension
280
     0
  2
*D12
 10
372.254125
 20
110.0
 30
0.0
 11
356.654144
 21
110.0
 31
0.0
 70
   161
  1
<>
 71
     5
 42
-1.0
 73
     0
 74
     0
 75
     0
  3
ISO-25
100
AcDbAlignedDimension
 13
341.054125
 23
166.15257
 33
0.0
 14
372.254125
 24
166.15257
 34
0.0
1001
ACAD
1000
DSTYLE
1002
{
1070
   287
1070
     3
1070
   279
1070
     0
1070
    41
1040
4.0
1070
    44
1040
2.0
1070
    42
1040
1.199999999999999
1070
   147
1040
2.0
1070
     3
1000

1070
    71
1070
     1
1070
    47
1040
0.2
1070
   140
1040
4.0
1002
}
  0
DIMENSION
  5
261
330
1F
100
AcDbEntity
  8
0
  6
Continuous
 62
     7
100
AcDbDimension
280
     0
  2
*D18
 10
172.354125
 20
390.0
 30
0.0
 11
152.354126
 21
390.0
 31
0.0
 70
   161
  1
TS
 71
     5
 42
40.0
 73
     0
 74
     0
 75
     0
  3
ISO-25
100
AcDbAlignedDimension
 13
132.354125
 23
352.80257
 33
0.0
 14
172.354125
 24
352.80257
 34
0.0
1001
ACAD
1000
DSTYLE
1002
{
1070
   287
1070
     3
1070
   279
1070
     0
1070
    41
1040
4.0
1070
    44
1040
2.0
1070
    42
1040
1.199999999999999
1070
   147
1040
2.0
1070
   140
1040
4.0
1002
}
  0
LINE
  5
26E
330
1F
100
AcDbEntity
  8
0
  6
DASHDOT
 62
    70
100
AcDbLine
 10
151.954125
 20
131.65257
 30
0.0
 11
151.954125
 21
349.65257
 31
0.0
  0
LINE
  5
26F
330
1F
100
AcDbEntity
  8
0
  6
Continuous
 62
     7
100
AcDbLine
 10
167.554125
 20
325.15257
 30
0.0
 11
167.554125
 21
166.15257
 31
0.0
  0
LINE
  5
270
330
1F
100
AcDbEntity
  8
0
  6
Continuous
 62
     7
100
AcDbLine
 10
136.354125
 20
325.15257
 30
0.0
 11
136.354125
 21
166.15257
 31
0.0
  0
ARC
  5
271
330
1F
100
AcDbEntity
  8
0
  6
Continuous
 62
     7
100
AcDbCircle
 10
151.954125
 20
325.15257
 30
0.0
 40
15.59999999999999
100
AcDbArc
 50
0.0
 51
180.0
  0
ARC
  5
272
330
1F
100
AcDbEntity
  8
0
  6
Continuous
 62
     7
100
AcDbCircle
 10
151.954125
 20
310.15257
 30
0.0
 40
15.59999999999999
100
AcDbArc
 50
360.0
 51
180.0
  0
ARC
  5
273
330
1F
100
AcDbEntity
  8
0
  6
Continuous
 62
     7
100
AcDbCircle
 10
151.954125
 20
166.15257
 30
0.0
 40
15.59999999999999
100
AcDbArc
 50
180.0
 51
360.0
  0
ARC
  5
274
330
1F
100
AcDbEntity
  8
0
  6
Continuous
 62
     7
100
AcDbCircle
 10
151.954125
 20
181.15257
 30
0.0
 40
15.59999999999999
100
AcDbArc
 50
180.0
 51
360.0
  0
DIMENSION
  5
275
330
1F
100
AcDbEntity
  8
0
  6
Continuous
 62
     7
100
AcDbDimension
280
     0
  2
*D19
 10
136.354125
 20
280.0
 30
0.0
 11
121.11603
 21
280.0
 31
0.0
 70
   160
  1
F
 71
     5
 42
-1.0
 73
     0
 74
     0
 75
     0
  3
ISO-25
100
AcDbAlignedDimension
 13
132.354125
 23
352.80257
 33
0.0
 14
136.354125
 24
325.15257
 34
0.0
100
AcDbRotatedDimension
1001
ACAD
1000
DSTYLE
1002
{
1070
   287
1070
     3
1070
   279
1070
     0
1070
    41
1040
4.0
1070
    44
1040
2.0
1070
    42
1040
1.199999999999999
1070
   147
1040
2.0
1070
   140
1040
4.0
1002
}
  0
DIMENSION
  5
285
330
1F
100
AcDbEntity
  8
0
  6
Continuous
 62
     7
100
AcDbDimension
280
     0
  2
*D20
 10
167.554125
 20
280.0
 30
0.0
 11
183.782696
 21
280.0
 31
0.0
 70
   160
  1
G
 71
     5
 42
-1.0
 73
     0
 74
     0
 75
     0
  3
ISO-25
100
AcDbAlignedDimension
 13
172.354125
 23
352.80257
 33
0.0
 14
167.554125
 24
325.15257
 34
0.0
100
AcDbRotatedDimension
1001
ACAD
1000
DSTYLE
1002
{
1070
   287
1070
     3
1070
     7
1000

1070
     6
1000

1070
   280
1070
     0
1070
    76
1070
     0
1070
    75
1070
     0
1070
   279
1070
     0
1070
    41
1040
4.0
1070
    44
1040
2.0
1070
    42
1040
1.199999999999999
1070
   147
1040
2.0
1070
   140
1040
4.0
1002
}
  0
DIMENSION
  5
295
330
1F
100
AcDbEntity
  8
0
  6
Continuous
 62
     7
100
AcDbDimension
280
     0
  2
*D21
 10
167.554125
 20
110.0
 30
0.0
 11
151.954132
 21
110.0
 31
0.0
 70
   161
  1
<>
 71
     5
 42
-1.0
 73
     0
 74
     0
 75
     0
  3
ISO-25
100
AcDbAlignedDimension
 13
136.354125
 23
166.15257
 33
0.0
 14
167.554125
 24
166.15257
 34
0.0
1001
ACAD
1000
DSTYLE
1002
{
1070
   287
1070
     3
1070
   279
1070
     0
1070
    41
1040
4.0
1070
    44
1040
2.0
1070
    42
1040
1.199999999999999
1070
   147
1040
2.0
1070
     3
1000

1070
    71
1070
     1
1070
    47
1040
0.2
1070
   140
1040
4.0
1002
}
  0
DIMENSION
  5
2A2
330
1F
100
AcDbEntity
  8
0
  6
Continuous
 62
     7
100
AcDbDimension
280
     0
  2
*D22
 10
200.000015
 20
165.55257
 30
0.0
 11
200.000015
 21
245.652573
 31
0.0
 70
   161
  1
<>
 71
     5
 42
-1.0
 73
     0
 74
     0
 75
     0
  3
ISO-25
100
AcDbAlignedDimension
 13
151.954125
 23
325.75257
 33
0.0
 14
151.954125
 24
165.55257
 34
0.0
1001
ACAD
1000
DSTYLE
1002
{
1070
   287
1070
     3
1070
     7
1000

1070
     6
1000

1070
   280
1070
     0
1070
    76
1070
     0
1070
    75
1070
     0
1070
   279
1070
     0
1070
    41
1040
4.0
1070
    44
1040
2.0
1070
    42
1040
1.199999999999999
1070
   147
1040
2.0
1070
     3
1000

1070
    71
1070
     1
1070
    47
1040
0.2
1070
   140
1040
4.0
1002
}
  0
DIMENSION
  5
2AF
330
1F
100
AcDbEntity
  8
0
  6
Continuous
 62
     7
100
AcDbDimension
280
     0
  2
*D23
 10
220.000015
 20
150.55257
 30
0.0
 11
220.000015
 21
245.652573
 31
0.0
 70
   161
  1
<>
 71
     5
 42
-1.0
 73
     0
 74
     0
 75
     0
  3
ISO-25
100
AcDbAlignedDimension
 13
151.954125
 23
340.75257
 33
0.0
 14
151.954125
 24
150.55257
 34
0.0
1001
ACAD
1000
DSTYLE
1002
{
1070
   287
1070
     3
1070
     7
1000

1070
     6
1000

1070
   280
1070
     0
1070
    76
1070
     0
1070
    75
1070
     0
1070
   279
1070
     0
1070
    41
1040
4.0
1070
    44
1040
2.0
1070
    42
1040
1.199999999999999
1070
   147
1040
2.0
1070
     3
1000

1070
    71
1070
     1
1070
    47
1040
0.2
1070
   140
1040
4.0
1002
}
  0
DIMENSION
  5
2BC
330
1F
100
AcDbEntity
  8
0
  6
Continuous
 62
     7
100
AcDbDimension
280
     0
  2
*D24
 10
579.2443849999999
 20
144.783767
 30
0.0
 11
579.2443849999999
 21
133.545672
 31
0.0
 70
   160
  1
F
 71
     5
 42
-1.0
 73
     0
 74
     0
 75
     0
  3
ISO-25
100
AcDbAlignedDimension
 13
561.959779
 23
148.783767
 33
0.0
 14
572.129779
 24
144.783767
 34
0.0
 50
90.0
100
AcDbRotatedDimension
1001
ACAD
1000
DSTYLE
1002
{
1070
   287
1070
     3
1070
     7
1000

1070
     6
1000

1070
   280
1070
     0
1070
    76
1070
     0
1070
    75
1070
     0
1070
   279
1070
     0
1070
    41
1040
4.0
1070
    44
1040
2.0
1070
    42
1040
1.199999999999999
1070
   147
1040
2.0
1070
   140
1040
4.0
1002
}
  0
DIMENSION
  5
2CC
330
1F
100
AcDbEntity
  8
0
  6
Continuous
 62
     7
100
AcDbDimension
280
     0
  2
*D25
 10
482.010437
 20
148.783767
 30
0.0
 11
482.010437
 21
164.2837679999999
 31
0.0
 70
   161
  1
<>
 71
     5
 42
-1.0
 73
     0
 74
     0
 75
     0
  3
ISO-25
100
AcDbAlignedDimension
 13
493.959779
 23
179.783767
 33
0.0
 14
493.959779
 24
148.783767
 34
0.0
1001
ACAD
1000
DSTYLE
1002
{
1070
   287
1070
     3
1070
     7
1000

1070
     6
1000

1070
   280
1070
     0
1070
    76
1070
     0
1070
    75
1070
     0
1070
   279
1070
     0
1070
    41
1040
4.0
1070
    44
1040
2.0
1070
    42
1040
1.199999999999999
1070
   147
1040
2.0
1070
     3
1000

1070
   140
1040
4.0
1002
}
  0
DIMENSION
  5
2D9
330
1F
100
AcDbEntity
  8
0
  6
Continuous
 62
     7
100
AcDbDimension
280
     0
  2
*D26
 10
579.2443849999999
 20
148.783767
 30
0.0
 11
579.2443849999999
 21
164.2837679999999
 31
0.0
 70
   161
  1
<>
 71
     5
 42
-1.0
 73
     0
 74
     0
 75
     0
  3
ISO-25
100
AcDbAlignedDimension
 13
561.959779
 23
179.783767
 33
0.0
 14
561.959779
 24
148.783767
 34
0.0
1001
ACAD
1000
DSTYLE
1002
{
1070
   287
1070
     3
1070
     7
1000

1070
     6
1000

1070
   280
1070
     0
1070
    76
1070
     0
1070
    75
1070
     0
1070
   279
1070
     0
1070
    41
1040
4.0
1070
    44
1040
2.0
1070
    42
1040
1.199999999999999
1070
   147
1040
2.0
1070
     3
1000

1070
   140
1040
4.0
1002
}
  0
DIMENSION
  5
2E6
330
1F
100
AcDbEntity
  8
0
  6
Continuous
 62
     7
100
AcDbDimension
280
     0
  2
*D27
 10
493.959779
 20
126.034866
 30
0.0
 11
511.709778
 21
126.034866
 31
0.0
 70
   160
  1
<>
 71
     5
 42
-1.0
 73
     0
 74
     0
 75
     0
  3
ISO-25
100
AcDbAlignedDimension
 13
529.459779
 23
144.783767
 33
0.0
 14
493.959779
 24
148.783767
 34
0.0
100
AcDbRotatedDimension
1001
ACAD
1000
DSTYLE
1002
{
1070
   287
1070
     3
1070
     7
1000

1070
     6
1000

1070
   280
1070
     0
1070
    76
1070
     0
1070
    75
1070
     0
1070
   279
1070
     0
1070
    41
1040
4.0
1070
    44
1040
2.0
1070
    42
1040
1.199999999999999
1070
   147
1040
2.0
1070
     3
1000

1070
   140
1040
4.0
1002
}
  0
DIMENSION
  5
2F3
330
1F
100
AcDbEntity
  8
0
  6
Continuous
 62
     7
100
AcDbDimension
280
     0
  2
*D28
 10
561.959779
 20
126.034866
 30
0.0
 11
547.209779
 21
130.034866
 31
0.0
 70
    32
  1
<>
 71
     5
 42
-1.0
 73
     0
 74
     0
 75
     0
  3
ISO-25
100
AcDbAlignedDimension
 13
532.459779
 23
144.783767
 33
0.0
 14
561.959779
 24
148.783767
 34
0.0
100
AcDbRotatedDimension
1001
ACAD
1000
DSTYLE
1002
{
1070
    41
1040
4.0
1070
    44
1040
2.0
1070
    42
1040
1.199999999999999
1070
   147
1040
2.0
1070
     3
1000

1070
   140
1040
4.0
1002
}
  0
CIRCLE
  5
301
330
1F
100
AcDbEntity
  8
1
  6
HIDDEN2
 62
    70
100
AcDbCircle
 10
144.954125
 20
331.15257
 30
0.0
 40
1.5
  0
CIRCLE
  5
302
330
1F
100
AcDbEntity
  8
1
  6
HIDDEN2
 62
    70
100
AcDbCircle
 10
158.954125
 20
331.15257
 30
0.0
 40
1.5
  0
LINE
  5
303
330
1F
100
AcDbEntity
  8
0
  6
CENTER2
 62
    70
100
AcDbLine
 10
144.954125
 20
331.15257
 30
0.0
 11
147.204125
 21
331.15257
 31
0.0
  0
LINE
  5
304
330
1F
100
AcDbEntity
  8
0
  6
CENTER2
 62
    70
100
AcDbLine
 10
144.954125
 20
331.15257
 30
0.0
 11
142.704125
 21
331.15257
 31
0.0
  0
LINE
  5
305
330
1F
100
AcDbEntity
  8
0
  6
CENTER2
 62
    70
100
AcDbLine
 10
144.954125
 20
331.15257
 30
0.0
 11
144.954125
 21
333.40257
 31
0.0
  0
LINE
  5
306
330
1F
100
AcDbEntity
  8
0
  6
CENTER2
 62
    70
100
AcDbLine
 10
144.954125
 20
331.15257
 30
0.0
 11
144.954125
 21
328.90257
 31
0.0
  0
LINE
  5
307
330
1F
100
AcDbEntity
  8
0
  6
CENTER2
 62
    70
100
AcDbLine
 10
158.954125
 20
331.15257
 30
0.0
 11
161.204125
 21
331.15257
 31
0.0
  0
LINE
  5
308
330
1F
100
AcDbEntity
  8
0
  6
CENTER2
 62
    70
100
AcDbLine
 10
158.954125
 20
331.15257
 30
0.0
 11
156.704125
 21
331.15257
 31
0.0
  0
LINE
  5
309
330
1F
100
AcDbEntity
  8
0
  6
CENTER2
 62
    70
100
AcDbLine
 10
158.954125
 20
331.15257
 30
0.0
 11
158.954125
 21
333.40257
 31
0.0
  0
LINE
  5
30A
330
1F
100
AcDbEntity
  8
0
  6
CENTER2
 62
    70
100
AcDbLine
 10
158.954125
 20
331.15257
 30
0.0
 11
158.954125
 21
328.90257
 31
0.0
  0
CIRCLE
  5
30B
330
1F
100
AcDbEntity
  8
1
  6
HIDDEN2
 62
    70
100
AcDbCircle
 10
144.954125
 20
160.15257
 30
0.0
 40
1.5
  0
CIRCLE
  5
30C
330
1F
100
AcDbEntity
  8
1
  6
HIDDEN2
 62
    70
100
AcDbCircle
 10
158.954125
 20
160.15257
 30
0.0
 40
1.5
  0
LINE
  5
30D
330
1F
100
AcDbEntity
  8
0
  6
CENTER2
 62
    70
100
AcDbLine
 10
144.954125
 20
160.15257
 30
0.0
 11
147.204125
 21
160.15257
 31
0.0
  0
LINE
  5
30E
330
1F
100
AcDbEntity
  8
0
  6
CENTER2
 62
    70
100
AcDbLine
 10
144.954125
 20
160.15257
 30
0.0
 11
142.704125
 21
160.15257
 31
0.0
  0
LINE
  5
30F
330
1F
100
AcDbEntity
  8
0
  6
CENTER2
 62
    70
100
AcDbLine
 10
144.954125
 20
160.15257
 30
0.0
 11
144.954125
 21
157.90257
 31
0.0
  0
LINE
  5
310
330
1F
100
AcDbEntity
  8
0
  6
CENTER2
 62
    70
100
AcDbLine
 10
144.954125
 20
160.15257
 30
0.0
 11
144.954125
 21
162.40257
 31
0.0
  0
LINE
  5
311
330
1F
100
AcDbEntity
  8
0
  6
CENTER2
 62
    70
100
AcDbLine
 10
158.954125
 20
160.15257
 30
0.0
 11
161.204125
 21
160.15257
 31
0.0
  0
LINE
  5
312
330
1F
100
AcDbEntity
  8
0
  6
CENTER2
 62
    70
100
AcDbLine
 10
158.954125
 20
160.15257
 30
0.0
 11
156.704125
 21
160.15257
 31
0.0
  0
LINE
  5
313
330
1F
100
AcDbEntity
  8
0
  6
CENTER2
 62
    70
100
AcDbLine
 10
158.954125
 20
160.15257
 30
0.0
 11
158.954125
 21
157.90257
 31
0.0
  0
LINE
  5
314
330
1F
100
AcDbEntity
  8
0
  6
CENTER2
 62
    70
100
AcDbLine
 10
158.954125
 20
160.15257
 30
0.0
 11
158.954125
 21
162.40257
 31
0.0
  0
CIRCLE
  5
315
330
1F
100
AcDbEntity
  8
1
  6
HIDDEN2
 62
    70
100
AcDbCircle
 10
349.654125
 20
331.15257
 30
0.0
 40
1.5
  0
CIRCLE
  5
316
330
1F
100
AcDbEntity
  8
1
  6
HIDDEN2
 62
    70
100
AcDbCircle
 10
363.654125
 20
331.15257
 30
0.0
 40
1.5
  0
LINE
  5
317
330
1F
100
AcDbEntity
  8
0
  6
CENTER2
 62
    70
100
AcDbLine
 10
349.654125
 20
331.15257
 30
0.0
 11
351.904125
 21
331.15257
 31
0.0
  0
LINE
  5
318
330
1F
100
AcDbEntity
  8
0
  6
CENTER2
 62
    70
100
AcDbLine
 10
349.654125
 20
331.15257
 30
0.0
 11
347.404125
 21
331.15257
 31
0.0
  0
LINE
  5
319
330
1F
100
AcDbEntity
  8
0
  6
CENTER2
 62
    70
100
AcDbLine
 10
349.654125
 20
331.15257
 30
0.0
 11
349.654125
 21
333.40257
 31
0.0
  0
LINE
  5
31A
330
1F
100
AcDbEntity
  8
0
  6
CENTER2
 62
    70
100
AcDbLine
 10
349.654125
 20
331.15257
 30
0.0
 11
349.654125
 21
328.90257
 31
0.0
  0
LINE
  5
31B
330
1F
100
AcDbEntity
  8
0
  6
CENTER2
 62
    70
100
AcDbLine
 10
363.654125
 20
331.15257
 30
0.0
 11
365.904125
 21
331.15257
 31
0.0
  0
LINE
  5
31C
330
1F
100
AcDbEntity
  8
0
  6
CENTER2
 62
    70
100
AcDbLine
 10
363.654125
 20
331.15257
 30
0.0
 11
361.404125
 21
331.15257
 31
0.0
  0
LINE
  5
31D
330
1F
100
AcDbEntity
  8
0
  6
CENTER2
 62
    70
100
AcDbLine
 10
363.654125
 20
331.15257
 30
0.0
 11
363.654125
 21
333.40257
 31
0.0
  0
LINE
  5
31E
330
1F
100
AcDbEntity
  8
0
  6
CENTER2
 62
    70
100
AcDbLine
 10
363.654125
 20
331.15257
 30
0.0
 11
363.654125
 21
328.90257
 31
0.0
  0
LINE
  5
31F
330
1F
100
AcDbEntity
  8
0
  6
CENTER2
 62
    70
100
AcDbLine
 10
363.654125
 20
160.15257
 30
0.0
 11
363.654125
 21
162.40257
 31
0.0
  0
CIRCLE
  5
320
330
1F
100
AcDbEntity
  8
1
  6
HIDDEN2
 62
    70
100
AcDbCircle
 10
349.654125
 20
160.15257
 30
0.0
 40
1.5
  0
CIRCLE
  5
321
330
1F
100
AcDbEntity
  8
1
  6
HIDDEN2
 62
    70
100
AcDbCircle
 10
363.654125
 20
160.15257
 30
0.0
 40
1.5
  0
LINE
  5
322
330
1F
100
AcDbEntity
  8
0
  6
CENTER2
 62
    70
100
AcDbLine
 10
349.654125
 20
160.15257
 30
0.0
 11
351.904125
 21
160.15257
 31
0.0
  0
LINE
  5
323
330
1F
100
AcDbEntity
  8
0
  6
CENTER2
 62
    70
100
AcDbLine
 10
349.654125
 20
160.15257
 30
0.0
 11
347.404125
 21
160.15257
 31
0.0
  0
LINE
  5
324
330
1F
100
AcDbEntity
  8
0
  6
CENTER2
 62
    70
100
AcDbLine
 10
349.654125
 20
160.15257
 30
0.0
 11
349.654125
 21
157.90257
 31
0.0
  0
LINE
  5
325
330
1F
100
AcDbEntity
  8
0
  6
CENTER2
 62
    70
100
AcDbLine
 10
349.654125
 20
160.15257
 30
0.0
 11
349.654125
 21
162.40257
 31
0.0
  0
LINE
  5
326
330
1F
100
AcDbEntity
  8
0
  6
CENTER2
 62
    70
100
AcDbLine
 10
363.654125
 20
160.15257
 30
0.0
 11
365.904125
 21
160.15257
 31
0.0
  0
LINE
  5
327
330
1F
100
AcDbEntity
  8
0
  6
CENTER2
 62
    70
100
AcDbLine
 10
363.654125
 20
160.15257
 30
0.0
 11
361.404125
 21
160.15257
 31
0.0
  0
LINE
  5
328
330
1F
100
AcDbEntity
  8
0
  6
CENTER2
 62
    70
100
AcDbLine
 10
363.654125
 20
160.15257
 30
0.0
 11
363.654125
 21
157.90257
 31
0.0
  0
DIMENSION
  5
329
330
1F
100
AcDbEntity
  8
0
  6
Continuous
 62
     7
100
AcDbDimension
280
     0
  2
*D29
 10
210.422592
 20
160.15257
 30
0.0
 11
210.422592
 21
245.652573
 31
0.0
 70
   161
  1
<>
 71
     5
 42
-1.0
 73
     0
 74
     0
 75
     0
  3
ISO-25
100
AcDbAlignedDimension
 13
161.204125
 23
331.15257
 33
0.0
 14
161.204125
 24
160.15257
 34
0.0
1001
ACAD
1000
DSTYLE
1002
{
1070
   287
1070
     3
1070
     7
1000

1070
     6
1000

1070
   280
1070
     0
1070
    76
1070
     0
1070
    75
1070
     0
1070
   279
1070
     0
1070
    41
1040
4.0
1070
    44
1040
2.0
1070
    42
1040
1.199999999999999
1070
   147
1040
2.0
1070
     3
1000

1070
   140
1040
4.0
1002
}
  0
DIMENSION
  5
336
330
1F
100
AcDbEntity
  8
0
  6
Continuous
 62
     7
100
AcDbDimension
280
     0
  2
*D30
 10
158.954125
 20
370.811096
 30
0.0
 11
151.954132
 21
370.811096
 31
0.0
 70
   161
  1
<>
 71
     5
 42
-1.0
 73
     0
 74
     0
 75
     0
  3
ISO-25
100
AcDbAlignedDimension
 13
144.954125
 23
333.40257
 33
0.0
 14
158.954125
 24
333.40257
 34
0.0
1001
ACAD
1000
DSTYLE
1002
{
1070
   287
1070
     3
1070
   279
1070
     0
1070
    41
1040
4.0
1070
    44
1040
2.0
1070
    42
1040
1.199999999999999
1070
   147
1040
2.0
1070
     3
1000

1070
   140
1040
4.0
1002
}
  0
DIMENSION
  5
343
330
1F
100
AcDbEntity
  8
0
  6
Continuous
 62
     7
100
AcDbDimension
280
     0
  2
*D31
 10
363.654125
 20
370.0
 30
0.0
 11
356.654114
 21
370.0
 31
0.0
 70
   161
  1
<>
 71
     5
 42
-1.0
 73
     0
 74
     0
 75
     0
  3
ISO-25
100
AcDbAlignedDimension
 13
349.654125
 23
333.40257
 33
0.0
 14
363.654125
 24
333.40257
 34
0.0
1001
ACAD
1000
DSTYLE
1002
{
1070
   287
1070
     3
1070
   279
1070
     0
1070
    41
1040
4.0
1070
    44
1040
2.0
1070
    42
1040
1.199999999999999
1070
   147
1040
2.0
1070
     3
1000

1070
   140
1040
4.0
1002
}
  0
DIMENSION
  5
350
330
1F
100
AcDbEntity
  8
0
  6
Continuous
 62
     7
100
AcDbDimension
280
     0
  2
*D32
 10
412.3962709999999
 20
160.15257
 30
0.0
 11
412.3962709999999
 21
245.652573
 31
0.0
 70
   161
  1
<>
 71
     5
 42
-1.0
 73
     0
 74
     0
 75
     0
  3
ISO-25
100
AcDbAlignedDimension
 13
365.904125
 23
331.15257
 33
0.0
 14
365.904125
 24
160.15257
 34
0.0
1001
ACAD
1000
DSTYLE
1002
{
1070
   287
1070
     3
1070
     7
1000

1070
     6
1000

1070
   280
1070
     0
1070
    76
1070
     0
1070
    75
1070
     0
1070
   279
1070
     0
1070
    41
1040
4.0
1070
    44
1040
2.0
1070
    42
1040
1.199999999999999
1070
   147
1040
2.0
1070
     3
1000

1070
   140
1040
4.0
1002
}
  0
LINE
  5
35D
330
1F
100
AcDbEntity
  8
0
  6
DASHDOT
 62
    70
100
AcDbLine
 10
41.354125
 20
245.65257
 30
0.0
 11
183.354125
 21
245.65257
 31
0.0
  0
LINE
  5
35E
330
1F
100
AcDbEntity
  8
0
  6
DASHDOT
 62
    70
100
AcDbLine
 10
388.054125
 20
245.65257
 30
0.0
 11
251.054125
 21
245.65257
 31
0.0
  0
LINE
  5
35F
330
1F
100
AcDbEntity
  8
0
  6
Continuous
 62
    70
100
AcDbLine
 10
535.0095589999999
 20
284.052853
 30
0.0
 11
491.4249809999999
 21
284.069312
 31
0.0
  0
LINE
  5
360
330
1F
100
AcDbEntity
  8
0
  6
Continuous
 62
    70
100
AcDbLine
 10
535.0061599999999
 20
275.052853
 30
0.0
 11
491.421582
 21
275.069313
 31
0.0
  0
LINE
  5
361
330
1F
100
AcDbEntity
  8
0
  6
Continuous
 62
    70
100
AcDbLine
 10
535.002761
 20
266.052854
 30
0.0
 11
491.418183
 21
266.069313
 31
0.0
  0
LINE
  5
362
330
1F
100
AcDbEntity
  8
0
  6
Continuous
 62
    70
100
AcDbLine
 10
534.999362
 20
257.052855
 30
0.0
 11
491.4147849999999
 21
257.069314
 31
0.0
  0
LINE
  5
363
330
1F
100
AcDbEntity
  8
0
  6
Continuous
 62
    70
100
AcDbLine
 10
534.9959629999999
 20
248.052855
 30
0.0
 11
491.411386
 21
248.069315
 31
0.0
  0
LINE
  5
364
330
1F
100
AcDbEntity
  8
0
  6
Continuous
 62
    70
100
AcDbLine
 10
535.012957
 20
239.052848
 30
0.0
 11
491.4283799999999
 21
239.069308
 31
0.0
  0
DIMENSION
  5
365
330
1F
100
AcDbEntity
  8
0
  6
Continuous
 62
     7
100
AcDbDimension
280
     0
  2
*D33
 10
157.788406
 20
330.2085890000001
 30
0.0
 11
195.9436510186359
 21
361.1060928326689
 31
0.0
 70
   163
  1
%%c Vorbohrung
 71
     5
 42
2.999999980894187
 73
     0
 74
     0
 75
     0
  3
ISO-25
100
AcDbDiametricDimension
 15
160.119844
 25
332.09655
 35
0.0
 40
0.0
  0
DIMENSION
  5
371
330
1F
100
AcDbEntity
  8
0
  6
Continuous
 62
     7
100
AcDbDimension
280
     0
  2
*D34
 10
362.46672
 20
330.236016
 30
0.0
 11
402.3599901338689
 21
361.0295124995334
 31
0.0
 70
   163
  1
%%c Vorbohrung
 71
     5
 42
3.000000454357405
 73
     0
 74
     0
 75
     0
  3
ISO-25
100
AcDbDiametricDimension
 15
364.8415289999999
 25
332.069124
 35
0.0
 40
0.0
  0
LINE
  5
442
330
1F
100
AcDbEntity
  8
1
  6
Continuous
 62
    70
100
AcDbLine
 10
447.5003319999999
 20
62.0
 30
0.0
 11
447.5003319999999
 21
15.0
 31
0.0
  0
LINE
  5
443
330
1F
100
AcDbEntity
  8
1
  6
Continuous
 62
    70
100
AcDbLine
 10
448.000332
 20
62.0
 30
0.0
 11
448.000332
 21
15.0
 31
0.0
  0
LINE
  5
444
330
1F
100
AcDbEntity
  8
1
  6
Continuous
 62
    70
100
AcDbLine
 10
463.000334
 20
62.0
 30
0.0
 11
463.000334
 21
48.0
 31
0.0
  0
LINE
  5
445
330
1F
100
AcDbEntity
  8
1
  6
Continuous
 62
    70
100
AcDbLine
 10
478.000334
 20
62.0
 30
0.0
 11
478.000334
 21
48.0
 31
0.0
  0
LINE
  5
446
330
1F
100
AcDbEntity
  8
1
  6
Continuous
 62
    70
100
AcDbLine
 10
515.000349
 20
62.0
 30
0.0
 11
515.000349
 21
15.0
 31
0.0
  0
LINE
  5
447
330
1F
100
AcDbEntity
  8
1
  6
Continuous
 62
    70
100
AcDbLine
 10
544.0003619999999
 20
33.0
 30
0.0
 11
544.0003619999999
 21
15.0
 31
0.0
  0
LINE
  5
448
330
1F
100
AcDbEntity
  8
1
  6
Continuous
 62
    70
100
AcDbLine
 10
584.0003659999999
 20
33.0
 30
0.0
 11
514.500349
 21
33.0
 31
0.0
  0
LINE
  5
449
330
1F
100
AcDbEntity
  8
1
  6
Continuous
 62
    70
100
AcDbLine
 10
584.0003659999999
 20
45.0
 30
0.0
 11
514.500349
 21
45.0
 31
0.0
  0
LINE
  5
44A
330
1F
100
AcDbEntity
  8
1
  6
Continuous
 62
    70
100
AcDbLine
 10
515.000349
 20
48.0
 30
0.0
 11
447.5003319999999
 21
48.0
 31
0.0
  0
LINE
  5
44B
330
1F
100
AcDbEntity
  8
1
  6
Continuous
 62
    70
100
AcDbLine
 10
584.0003659999999
 20
62.0
 30
0.0
 11
447.5003319999999
 21
62.0
 31
0.0
  0
LINE
  5
44C
330
1F
100
AcDbEntity
  8
1
  6
Continuous
 62
    70
100
AcDbLine
 10
478.000334
 20
57.5
 30
0.0
 11
448.000332
 21
57.5
 31
0.0
  0
LINE
  5
44D
330
1F
100
AcDbEntity
  8
1
  6
Continuous
 62
    70
100
AcDbLine
 10
515.000349
 20
31.0
 30
0.0
 11
447.5003319999999
 21
31.0
 31
0.0
  0
TEXT
  5
44E
330
1F
100
AcDbEntity
  8
1
  6
Continuous
 62
    70
100
AcDbText
 10
450.264855679428
 20
58.47176682127924
 30
0.0
 40
2.0
  1
Datum
100
AcDbText
  0
TEXT
  5
44F
330
1F
100
AcDbEntity
  8
1
  6
Continuous
 62
    70
100
AcDbText
 10
465.522919
 20
58.571961
 30
0.0
 40
2.0
  1
KZ
100
AcDbText
  0
TEXT
  5
450
330
1F
100
AcDbEntity
  8
1
  6
Continuous
 62
    70
100
AcDbText
 10
449.587494
 20
43.986268
 30
0.0
 40
2.0
  1
Bezeichnung
100
AcDbText
  0
TEXT
  5
451
330
1F
100
AcDbEntity
  8
1
  6
Continuous
 62
    70
100
AcDbText
 10
481.5731704688869
 20
58.32440708597586
 30
0.0
 40
2.0
  1
Masstab
100
AcDbText
  0
TEXT
  5
452
330
1F
100
AcDbEntity
  8
1
  6
Continuous
 62
    70
100
AcDbText
 10
449.409149
 20
17.5
 30
0.0
 40
2.0
  1
Datei
100
AcDbText
  0
TEXT
  5
453
330
1F
100
AcDbEntity
  8
1
  6
Continuous
 62
    70
100
AcDbText
 10
517.8609930035151
 20
57.90895919972256
 30
0.0
 40
1.6
  1
Diese Zeichnung darf ohne unsere
100
AcDbText
  0
TEXT
  5
454
330
1F
100
AcDbEntity
  8
1
  6
Continuous
 62
    70
100
AcDbText
 10
518.0361086879416
 20
53.48555819972256
 30
0.0
 40
1.6
  1
schriftliche Zustimmung nicht verändert
100
AcDbText
  0
TEXT
  5
455
330
1F
100
AcDbEntity
  8
1
  6
Continuous
 62
    70
100
AcDbText
 10
545.872192
 20
28.13580399999999
 30
0.0
 40
2.5
  1
Zeichnung
 41
1.11
100
AcDbText
  0
LINE
  5
456
330
1F
100
AcDbEntity
  8
1
  6
Continuous
 62
    70
100
AcDbLine
 10
583.5003659999999
 20
15.0
 30
0.0
 11
583.5003659999999
 21
62.0
 31
0.0
  0
LINE
  5
457
330
1F
100
AcDbEntity
  8
1
  6
Continuous
 62
    70
100
AcDbLine
 10
447.5003319999999
 20
15.5
 30
0.0
 11
584.0
 21
15.5
 31
0.0
  0
LINE
  5
458
330
1F
100
AcDbEntity
  8
1
  6
Continuous
 62
    70
100
AcDbLine
 10
447.5003319999999
 20
48.5
 30
0.0
 11
515.000349
 21
48.5
 31
0.0
  0
LINE
  5
459
330
1F
100
AcDbEntity
  8
1
  6
Continuous
 62
    70
100
AcDbLine
 10
584.0003659999999
 20
61.5
 30
0.0
 11
447.5003319999999
 21
61.5
 31
0.0
  0
LINE
  5
45A
330
1F
100
AcDbEntity
  8
1
  6
Continuous
 62
    70
100
AcDbLine
 10
514.500349
 20
15.0
 30
0.0
 11
514.500349
 21
62.0
 31
0.0
  0
LINE
  5
45B
330
1F
100
AcDbEntity
  8
1
  6
Continuous
 62
    70
100
AcDbLine
 10
447.5003319999999
 20
31.5
 30
0.0
 11
515.000349
 21
31.5
 31
0.0
  0
LINE
  5
45C
330
1F
100
AcDbEntity
  8
1
  6
Continuous
 62
    70
100
AcDbLine
 10
514.500349
 20
33.5
 30
0.0
 11
584.0003659999999
 21
33.5
 31
0.0
  0
TEXT
  5
45D
330
1F
100
AcDbEntity
  8
1
  6
Continuous
 62
    70
100
AcDbText
 10
544.320068
 20
19.500001
 30
0.0
 40
4.0
  1
41967
 41
1.03
100
AcDbText
  0
TEXT
  5
45E
330
1F
100
AcDbEntity
  8
1
  6
Continuous
 62
    70
100
AcDbText
 10
449.4639824474615
 20
36.000001
 30
0.0
 40
4.0
  1
Fräsbild IN311
100
AcDbText
  0
TEXT
  5
45F
330
1F
100
AcDbEntity
  8
1
  6
Continuous
 62
    70
100
AcDbText
 10
451.1352261768928
 20
52.35774245019644
 30
0.0
 40
1.5
  1
20.05.20
100
AcDbText
  0
TEXT
  5
460
330
1F
100
AcDbEntity
  8
1
  6
Continuous
 62
    70
100
AcDbText
 10
461.497528
 20
17.43030496816118
 30
0.0
 40
2.5
  1
IN311_Fraesbild
100
AcDbText
  0
TEXT
  5
461
330
1F
100
AcDbEntity
  8
1
  6
Continuous
 62
    70
100
AcDbText
 10
482.038258468887
 20
50.33814008597585
 30
0.0
 40
3.0
  1
1:1
100
AcDbText
  0
INSERT
  5
462
330
1F
100
AcDbEntity
  8
0
  6
Continuous
 62
     7
100
AcDbBlockReference
  2
GRI
 10
469.769923
 20
53.5
 30
0.0
  0
TEXT
  5
463
330
1F
100
AcDbEntity
  8
1
  6
Continuous
 62
    70
100
AcDbText
 10
518.0361086879416
 20
49.48555819972256
 30
0.0
 40
1.6
  1
oder an Dritte weitergeleitet werden
  7
PRECISO
100
AcDbText
  0
INSERT
  5
464
330
1F
100
AcDbEntity
  8
Ebene 1
100
AcDbBlockReference
  2
block 2
 10
502.4701639081111
 20
-13.78724063006305
 30
0.0
 41
0.2606537099102952
 42
0.2606537099102952
 43
0.2606537099102952
  0
MTEXT
  5
46A
330
1F
100
AcDbEntity
  8
0
  6
Continuous
 62
    70
100
AcDbMText
 10
492.8646867060852
 20
375.6171374384038
 30
0.0
 40
5.0
 41
0.0
 46
0.0
 71
     1
 72
     1
  1
{\fTahoma|b0|i0|c0|p34;Auflistung \PPositionierung}
  7
DEFAULT
 73
     1
 44
1.0
  0
ENDSEC
  0
SECTION
  2
OBJECTS
  0
DICTIONARY
  5
C
330
0
100
AcDbDictionary
281
     1
  3
ACAD_CIP_PREVIOUS_PRODUCT_INFO
350
3C5
  3
ACAD_COLOR
350
3B9
  3
ACAD_DETAILVIEWSTYLE
350
3BE
  3
ACAD_GROUP
350
D
  3
ACAD_LAYOUT
350
1A
  3
ACAD_MATERIAL
350
43
  3
ACAD_MLEADERSTYLE
350
6B
  3
ACAD_MLINESTYLE
350
17
  3
ACAD_PLOTSETTINGS
350
19
  3
ACAD_PLOTSTYLENAME
350
3B5
  3
ACAD_SCALELIST
350
47
  3
ACAD_SECTIONVIEWSTYLE
350
3BC
  3
ACAD_TABLESTYLE
350
3BA
  3
ACAD_VISUALSTYLE
350
2A
  3
ACDB_RECOMPOSE_DATA
350
56F
  3
ACDBVARIABLEDICTIONARY
350
39E
  0
DICTIONARY
  5
51F
330
8
100
AcDbDictionary
280
     1
281
     1
  0
DICTIONARY
  5
419
330
2
100
AcDbDictionary
280
     1
281
     1
  3
ACAD_LAYERSTATES
360
41A
  0
DICTIONARY
  5
3C6
330
10
100
AcDbDictionary
280
     1
281
     1
  3
ADSK_XREC_LAYER_RECONCILED
360
3C7
  0
DICTIONARY
  5
3C8
330
6F
100
AcDbDictionary
280
     1
281
     1
  3
ADSK_XREC_LAYER_RECONCILED
360
3C9
  0
DICTIONARY
  5
3CA
330
70
100
AcDbDictionary
280
     1
281
     1
  3
ADSK_XREC_LAYER_RECONCILED
360
3CB
  0
DICTIONARY
  5
3CC
330
71
100
AcDbDictionary
280
     1
281
     1
  3
ADSK_XREC_LAYER_RECONCILED
360
3CD
  0
DICTIONARY
  5
3CE
330
72
100
AcDbDictionary
280
     1
281
     1
  3
ADSK_XREC_LAYER_RECONCILED
360
3CF
  0
DICTIONARY
  5
3D0
330
73
100
AcDbDictionary
280
     1
281
     1
  3
ADSK_XREC_LAYER_RECONCILED
360
3D1
  0
DICTIONARY
  5
551
330
94
100
AcDbDictionary
280
     1
281
     1
  0
DICTIONARY
  5
553
330
AC
100
AcDbDictionary
280
     1
281
     1
  0
DICTIONARY
  5
555
330
DF
100
AcDbDictionary
280
     1
281
     1
  0
XRECORD
  5
3C5
102
{ACAD_REACTORS
330
C
102
}
330
C
100
AcDbXrecord
280
     1
300
ACDLT
300
2020
300
ACDLT_F_S
  0
DICTIONARY
  5
3B9
102
{ACAD_REACTORS
330
C
102
}
330
C
100
AcDbDictionary
281
     1
  0
DICTIONARY
  5
3BE
102
{ACAD_REACTORS
330
C
102
}
330
C
100
AcDbDictionary
281
     1
  3
Metric50
350
3BF
  0
DICTIONARY
  5
D
102
{ACAD_REACTORS
330
C
102
}
330
C
100
AcDbDictionary
281
     1
  0
DICTIONARY
  5
1A
102
{ACAD_REACTORS
330
C
102
}
330
C
100
AcDbDictionary
281
     1
  3
Layout1
350
3C1
  3
Model
350
3C0
  0
DICTIONARY
  5
43
102
{ACAD_REACTORS
330
C
102
}
330
C
100
AcDbDictionary
281
     1
  3
BYBLOCK
350
45
  3
BYLAYER
350
44
  3
GLOBAL
350
46
  0
DICTIONARY
  5
6B
102
{ACAD_REACTORS
330
C
102
}
330
C
100
AcDbDictionary
281
     1
  3
STANDARD
350
6C
  0
DICTIONARY
  5
17
102
{ACAD_REACTORS
330
C
102
}
330
C
100
AcDbDictionary
281
     1
  3
STANDARD
350
18
  0
DICTIONARY
  5
19
102
{ACAD_REACTORS
330
C
102
}
330
C
100
AcDbDictionary
281
     1
  0
ACDBDICTIONARYWDFLT
  5
3B5
102
{ACAD_REACTORS
330
C
102
}
330
C
100
AcDbDictionary
281
     1
  3
Normal
350
3B6
100
AcDbDictionaryWithDefault
340
3B6
  0
DICTIONARY
  5
47
102
{ACAD_REACTORS
330
C
102
}
330
C
100
AcDbDictionary
281
     1
  3
A0
350
48
  3
A1
350
49
  3
A2
350
4A
  3
A3
350
4B
  3
A4
350
4C
  3
A5
350
4D
  3
A6
350
4E
  3
A7
350
4F
  3
A8
350
50
  3
A9
350
51
  3
B0
350
52
  3
B1
350
53
  3
B2
350
54
  3
B3
350
55
  3
B4
350
56
  3
B5
350
57
  3
B6
350
58
  3
B7
350
59
  3
B8
350
5A
  3
B9
350
5B
  3
C0
350
5C
  3
C1
350
5D
  3
C2
350
5E
  3
C3
350
5F
  3
C4
350
60
  3
C5
350
61
  3
C6
350
62
  3
C7
350
63
  3
C8
350
64
  3
C9
350
65
  3
D0
350
66
  3
D1
350
67
  3
D2
350
68
  0
DICTIONARY
  5
3BC
102
{ACAD_REACTORS
330
C
102
}
330
C
100
AcDbDictionary
281
     1
  3
Metric50
350
3BD
  0
DICTIONARY
  5
3BA
102
{ACAD_REACTORS
330
C
102
}
330
C
100
AcDbDictionary
281
     1
  3
Standard
350
3BB
  0
DICTIONARY
  5
2A
102
{ACAD_REACTORS
330
C
102
}
330
C
100
AcDbDictionary
281
     1
  3
2DWIREFRAME
350
2F
  3
BASIC
350
32
  3
BRIGHTEN
350
36
  3
COLORCHANGE
350
3A
  3
CONCEPTUAL
350
34
  3
DIM
350
35
  3
EDGECOLOROFF
350
3D
  3
FACEPATTERN
350
39
  3
FLAT
350
2B
  3
FLATWITHEDGES
350
2C
  3
GOURAUD
350
2D
  3
GOURAUDWITHEDGES
350
2E
  3
HIDDEN
350
31
  3
JITTEROFF
350
3B
  3
LINEPATTERN
350
38
  3
OVERHANGOFF
350
3C
  3
REALISTIC
350
33
  3
SHADED
350
42
  3
Shaded with edges
350
3B8
  3
SHADED_WITH_EDGES
350
41
  3
Shades of Gray
350
3B7
  3
SHADES_OF_GRAY
350
3E
  3
SKETCHY
350
3F
  3
THICKEN
350
37
  3
WIREFRAME
350
30
  3
X-RAY
350
40
  0
XRECORD
  5
56F
102
{ACAD_REACTORS
330
C
102
}
330
C
100
AcDbXrecord
280
     1
 90
        1
330
3BB
  0
DICTIONARY
  5
39E
102
{ACAD_REACTORS
330
C
102
}
330
C
100
AcDbDictionary
281
     1
  3
CANNOSCALE
350
3A9
  3
CMLEADERSTYLE
350
3A0
  3
CTABLESTYLE
350
39F
  3
CVIEWDETAILSTYLE
350
4A6
  3
CVIEWSECTIONSTYLE
350
4A7
  3
DIMASSOC
350
3A5
  3
HIDETEXT
350
3A6
  3
INDEXCTL
350
565
  3
LAYEREVAL
350
4A9
  3
LAYERNOTIFY
350
4AA
  3
LIGHTINGUNITS
350
4A8
  3
MSLTSCALE
350
3AA
  3
SORTENTS
350
564
  0
DICTIONARY
  5
41A
102
{ACAD_REACTORS
330
419
102
}
330
419
100
AcDbDictionary
281
     1
  0
XRECORD
  5
3C7
102
{ACAD_REACTORS
330
3C6
102
}
330
3C6
100
AcDbXrecord
280
     1
290
     1
  0
XRECORD
  5
3C9
102
{ACAD_REACTORS
330
3C8
102
}
330
3C8
100
AcDbXrecord
280
     1
290
     1
  0
XRECORD
  5
3CB
102
{ACAD_REACTORS
330
3CA
102
}
330
3CA
100
AcDbXrecord
280
     1
290
     1
  0
XRECORD
  5
3CD
102
{ACAD_REACTORS
330
3CC
102
}
330
3CC
100
AcDbXrecord
280
     1
290
     1
  0
XRECORD
  5
3CF
102
{ACAD_REACTORS
330
3CE
102
}
330
3CE
100
AcDbXrecord
280
     1
290
     1
  0
XRECORD
  5
3D1
102
{ACAD_REACTORS
330
3D0
102
}
330
3D0
100
AcDbXrecord
280
     1
290
     1
  0
ACDBDETAILVIEWSTYLE
  5
3BF
102
{ACAD_XDICTIONARY
360
5A6
102
}
102
{ACAD_REACTORS
330
3BE
102
}
330
3BE
100
AcDbModelDocViewStyle
 70
     0
  3
Metric50
290
     0
100
AcDbDetailViewStyle
 70
     0
 71
     0
 90
        3
 71
     1
340
11
 62
   256
 40
5.0
340
0
 62
   256
 40
5.0
300

 40
0.0
280
     1
 71
     2
340
16
 90
       25
 62
   256
 71
     3
340
11
 62
   256
 40
5.0
 90
        0
 40
15.0
 90
        1
300
%<\AcVar ViewDetailId>% (%<\AcVar ViewScale \f "%sn">%)
 71
     4
340
16
 90
       25
 62
   256
340
16
 90
       25
 62
   256
280
     0
  0
LAYOUT
  5
3C1
102
{ACAD_REACTORS
330
1A
102
}
330
1A
100
AcDbPlotSettings
  1

  2
\\golls02\Laser_MARK
  4

  6

 40
0.0
 41
0.0
 42
0.0
 43
0.0
 44
0.0
 45
0.0
 46
0.0
 47
0.0
 48
0.0
 49
0.0
140
0.0
141
0.0
142
1.0
143
1.0
 70
   688
 72
     0
 73
     0
 74
     5
  7

 75
    16
147
1.0
 76
     0
 77
     2
 78
   300
148
0.0
149
0.0
100
AcDbLayout
  1
Layout1
 70
     1
 71
     1
 10
0.0
 20
0.0
 11
420.0
 21
297.0
 12
0.0
 22
0.0
 32
0.0
 14
1.000000000000000E+20
 24
1.000000000000000E+20
 34
1.000000000000000E+20
 15
-1.000000000000000E+20
 25
-1.000000000000000E+20
 35
-1.000000000000000E+20
146
0.0
 13
0.0
 23
0.0
 33
0.0
 16
1.0
 26
0.0
 36
0.0
 17
0.0
 27
1.0
 37
0.0
 76
     0
330
1B
  0
LAYOUT
  5
3C0
102
{ACAD_REACTORS
330
1A
102
}
330
1A
100
AcDbPlotSettings
  1

  2
\\golls02\Laser_MARK
  4

  6

 40
0.0
 41
0.0
 42
0.0
 43
0.0
 44
0.0
 45
0.0
 46
0.0
 47
0.0
 48
0.0
 49
0.0
140
0.0
141
0.0
142
1.0
143
1.0
 70
  1712
 72
     0
 73
     0
 74
     0
  7

 75
     0
147
1.0
 76
     0
 77
     2
 78
   300
148
0.0
149
0.0
100
AcDbLayout
  1
Model
 70
     1
 71
     0
 10
0.0
 20
0.0
 11
12.0
 21
9.0
 12
0.0
 22
0.0
 32
0.0
 14
0.0
 24
0.0
 34
0.0
 15
0.0
 25
0.0
 35
0.0
146
0.0
 13
0.0
 23
0.0
 33
0.0
 16
1.0
 26
0.0
 36
0.0
 17
0.0
 27
1.0
 37
0.0
 76
     0
330
1F
331
29
  0
MATERIAL
  5
45
102
{ACAD_REACTORS
330
43
102
}
330
43
100
AcDbMaterial
  1
BYBLOCK
  0
MATERIAL
  5
44
102
{ACAD_REACTORS
330
43
102
}
330
43
100
AcDbMaterial
  1
BYLAYER
  0
MATERIAL
  5
46
102
{ACAD_REACTORS
330
43
102
}
330
43
100
AcDbMaterial
  1
GLOBAL
  0
MLEADERSTYLE
  5
6C
102
{ACAD_REACTORS
330
6B
102
}
330
6B
100
AcDbMLeaderStyle
179
     2
170
     2
171
     1
172
     0
 90
        2
 40
0.0
 41
0.0
173
     1
 91
-1056964608
340
14
 92
       -2
290
     1
 42
2.0
291
     1
 43
8.0
  3
Standard
 44
4.0
300

342
11
174
     1
178
     6
175
     1
176
     0
 93
-1056964608
 45
4.0
292
     0
297
     0
 46
4.0
 94
-1056964608
 47
1.0
 49
1.0
140
1.0
293
     1
141
0.0
294
     1
177
     0
142
1.0
295
     0
296
     0
143
3.75
271
     0
272
     9
273
     9
  0
MLINESTYLE
  5
18
102
{ACAD_REACTORS
330
17
102
}
330
17
100
AcDbMlineStyle
  2
STANDARD
 70
     0
  3

 62
   256
 51
90.0
 52
90.0
 71
     2
 49
0.5
 62
   256
  6
BYLAYER
 49
-0.5
 62
   256
  6
BYLAYER
  0
ACDBPLACEHOLDER
  5
3B6
102
{ACAD_REACTORS
330
3B5
102
}
330
3B5
  0
SCALE
  5
48
102
{ACAD_REACTORS
330
47
102
}
330
47
100
AcDbScale
 70
     0
300
1:1
140
1.0
141
1.0
290
     1
  0
SCALE
  5
49
102
{ACAD_REACTORS
330
47
102
}
330
47
100
AcDbScale
 70
     0
300
1:2
140
1.0
141
2.0
290
     0
  0
SCALE
  5
4A
102
{ACAD_REACTORS
330
47
102
}
330
47
100
AcDbScale
 70
     0
300
1:4
140
1.0
141
4.0
290
     0
  0
SCALE
  5
4B
102
{ACAD_REACTORS
330
47
102
}
330
47
100
AcDbScale
 70
     0
300
1:5
140
1.0
141
5.0
290
     0
  0
SCALE
  5
4C
102
{ACAD_REACTORS
330
47
102
}
330
47
100
AcDbScale
 70
     0
300
1:8
140
1.0
141
8.0
290
     0
  0
SCALE
  5
4D
102
{ACAD_REACTORS
330
47
102
}
330
47
100
AcDbScale
 70
     0
300
1:10
140
1.0
141
10.0
290
     0
  0
SCALE
  5
4E
102
{ACAD_REACTORS
330
47
102
}
330
47
100
AcDbScale
 70
     0
300
1:16
140
1.0
141
16.0
290
     0
  0
SCALE
  5
4F
102
{ACAD_REACTORS
330
47
102
}
330
47
100
AcDbScale
 70
     0
300
1:20
140
1.0
141
20.0
290
     0
  0
SCALE
  5
50
102
{ACAD_REACTORS
330
47
102
}
330
47
100
AcDbScale
 70
     0
300
1:30
140
1.0
141
30.0
290
     0
  0
SCALE
  5
51
102
{ACAD_REACTORS
330
47
102
}
330
47
100
AcDbScale
 70
     0
300
1:40
140
1.0
141
40.0
290
     0
  0
SCALE
  5
52
102
{ACAD_REACTORS
330
47
102
}
330
47
100
AcDbScale
 70
     0
300
1:50
140
1.0
141
50.0
290
     0
  0
SCALE
  5
53
102
{ACAD_REACTORS
330
47
102
}
330
47
100
AcDbScale
 70
     0
300
1:100
140
1.0
141
100.0
290
     0
  0
SCALE
  5
54
102
{ACAD_REACTORS
330
47
102
}
330
47
100
AcDbScale
 70
     0
300
2:1
140
2.0
141
1.0
290
     0
  0
SCALE
  5
55
102
{ACAD_REACTORS
330
47
102
}
330
47
100
AcDbScale
 70
     0
300
4:1
140
4.0
141
1.0
290
     0
  0
SCALE
  5
56
102
{ACAD_REACTORS
330
47
102
}
330
47
100
AcDbScale
 70
     0
300
8:1
140
8.0
141
1.0
290
     0
  0
SCALE
  5
57
102
{ACAD_REACTORS
330
47
102
}
330
47
100
AcDbScale
 70
     0
300
10:1
140
10.0
141
1.0
290
     0
  0
SCALE
  5
58
102
{ACAD_REACTORS
330
47
102
}
330
47
100
AcDbScale
 70
     0
300
100:1
140
100.0
141
1.0
290
     0
  0
SCALE
  5
59
102
{ACAD_REACTORS
330
47
102
}
330
47
100
AcDbScale
 70
     0
300
1/128" = 1'-0"
140
0.0078125
141
12.0
290
     0
  0
SCALE
  5
5A
102
{ACAD_REACTORS
330
47
102
}
330
47
100
AcDbScale
 70
     0
300
1/64" = 1'-0"
140
0.015625
141
12.0
290
     0
  0
SCALE
  5
5B
102
{ACAD_REACTORS
330
47
102
}
330
47
100
AcDbScale
 70
     0
300
1/32" = 1'-0"
140
0.03125
141
12.0
290
     0
  0
SCALE
  5
5C
102
{ACAD_REACTORS
330
47
102
}
330
47
100
AcDbScale
 70
     0
300
1/16" = 1'-0"
140
0.0625
141
12.0
290
     0
  0
SCALE
  5
5D
102
{ACAD_REACTORS
330
47
102
}
330
47
100
AcDbScale
 70
     0
300
3/32" = 1'-0"
140
0.09375
141
12.0
290
     0
  0
SCALE
  5
5E
102
{ACAD_REACTORS
330
47
102
}
330
47
100
AcDbScale
 70
     0
300
1/8" = 1'-0"
140
0.125
141
12.0
290
     0
  0
SCALE
  5
5F
102
{ACAD_REACTORS
330
47
102
}
330
47
100
AcDbScale
 70
     0
300
3/16" = 1'-0"
140
0.1875
141
12.0
290
     0
  0
SCALE
  5
60
102
{ACAD_REACTORS
330
47
102
}
330
47
100
AcDbScale
 70
     0
300
1/4" = 1'-0"
140
0.25
141
12.0
290
     0
  0
SCALE
  5
61
102
{ACAD_REACTORS
330
47
102
}
330
47
100
AcDbScale
 70
     0
300
3/8" = 1'-0"
140
0.375
141
12.0
290
     0
  0
SCALE
  5
62
102
{ACAD_REACTORS
330
47
102
}
330
47
100
AcDbScale
 70
     0
300
1/2" = 1'-0"
140
0.5
141
12.0
290
     0
  0
SCALE
  5
63
102
{ACAD_REACTORS
330
47
102
}
330
47
100
AcDbScale
 70
     0
300
3/4" = 1'-0"
140
0.75
141
12.0
290
     0
  0
SCALE
  5
64
102
{ACAD_REACTORS
330
47
102
}
330
47
100
AcDbScale
 70
     0
300
1" = 1'-0"
140
1.0
141
12.0
290
     0
  0
SCALE
  5
65
102
{ACAD_REACTORS
330
47
102
}
330
47
100
AcDbScale
 70
     0
300
1-1/2" = 1'-0"
140
1.5
141
12.0
290
     0
  0
SCALE
  5
66
102
{ACAD_REACTORS
330
47
102
}
330
47
100
AcDbScale
 70
     0
300
3" = 1'-0"
140
3.0
141
12.0
290
     0
  0
SCALE
  5
67
102
{ACAD_REACTORS
330
47
102
}
330
47
100
AcDbScale
 70
     0
300
6" = 1'-0"
140
6.0
141
12.0
290
     0
  0
SCALE
  5
68
102
{ACAD_REACTORS
330
47
102
}
330
47
100
AcDbScale
 70
     0
300
1'-0" = 1'-0"
140
12.0
141
12.0
290
     0
  0
ACDBSECTIONVIEWSTYLE
  5
3BD
102
{ACAD_XDICTIONARY
360
5A4
102
}
102
{ACAD_REACTORS
330
3BC
102
}
330
3BC
100
AcDbModelDocViewStyle
 70
     0
  3
Metric50
290
     0
100
AcDbSectionViewStyle
 70
     0
 71
     0
 90
      102
 71
     1
340
11
 62
   256
 40
5.0
340
0
340
0
 62
   256
 40
5.0
300
I, O, Q, S, X, Z
 40
10.0
 90
        0
 40
2.5
 90
        0
 71
     2
340
16
 90
       25
 62
   256
340
16
 90
       50
 62
   256
 40
5.0
 40
2.5
 40
5.0
 71
     3
340
11
 62
   256
 40
5.0
 90
        0
 40
15.0
 90
        1
300
%<\AcVar ViewSectionStartId>%-%<\AcVar ViewSectionEndId>% (%<\AcVar ViewScale \f "%sn">%)
 71
     4
 62
   256
 62
   257
300
ANSI31
 40
1.0
 90
        0
290
     0
290
     0
 90
        6
 40
0.0
 40
1.570796326794896
 40
0.2617993877991494
 40
1.308996938995747
 40
-0.2617993877991494
 40
1.832595714594046
  0
TABLESTYLE
  5
3BB
102
{ACAD_XDICTIONARY
360
513
102
}
102
{ACAD_REACTORS
330
3BA
102
}
330
3BA
100
AcDbTableStyle
280
     0
  3
Standard
 70
     0
 71
     0
 40
1.5
 41
1.5
280
     0
281
     0
  7
STANDARD
140
4.5
170
     2
 62
     0
 63
     7
283
     0
 90
      512
 91
        0
  1

274
    -2
284
     1
 64
     0
275
    -2
285
     1
 65
     0
276
    -2
286
     1
 66
     0
277
    -2
287
     1
 67
     0
278
    -2
288
     1
 68
     0
279
    -2
289
     1
 69
     0
  7
STANDARD
140
6.0
170
     5
 62
     0
 63
     7
283
     0
 90
      512
 91
        0
  1

274
    -2
284
     1
 64
     0
275
    -2
285
     1
 65
     0
276
    -2
286
     1
 66
     0
277
    -2
287
     1
 67
     0
278
    -2
288
     1
 68
     0
279
    -2
289
     1
 69
     0
  7
STANDARD
140
4.5
170
     5
 62
     0
 63
     7
283
     0
 90
      512
 91
        0
  1

274
    -2
284
     1
 64
     0
275
    -2
285
     1
 65
     0
276
    -2
286
     1
 66
     0
277
    -2
287
     1
 67
     0
278
    -2
288
     1
 68
     0
279
    -2
289
     1
 69
     0
  0
VISUALSTYLE
  5
2F
102
{ACAD_XDICTIONARY
360
578
102
}
102
{ACAD_REACTORS
330
2A
102
}
330
2A
100
AcDbVisualStyle
  2
2dWireframe
 70
     4
177
     2
291
     0
 71
     0
176
     1
 72
     2
176
     1
 73
     0
176
     1
 90
        0
176
     1
 40
0.6
176
     1
 41
30.0
176
     1
 63
     7
176
     1
 74
     1
176
     1
 91
        4
176
     1
 64
     7
176
     1
 65
   257
176
     1
 75
     1
176
     1
175
     1
176
     1
 42
1.0
176
     1
 92
        0
176
     1
 66
   257
176
     1
 43
1.0
176
     1
 76
     1
176
     1
 77
     6
176
     1
 78
     2
176
     1
 67
     7
176
     1
 79
     5
176
     1
170
     0
176
     1
171
     0
176
     1
290
     0
176
     1
 93
        1
176
     1
 44
0.0
176
     1
173
     0
176
     1
1001
ACAD
1000
AcDbSavedByObjectVersion
1070
     0
  0
VISUALSTYLE
  5
32
102
{ACAD_XDICTIONARY
360
57E
102
}
102
{ACAD_REACTORS
330
2A
102
}
330
2A
100
AcDbVisualStyle
  2
Basic
 70
     7
177
     2
291
     1
 71
     1
176
     1
 72
     0
176
     1
 73
     1
176
     1
 90
        0
176
     1
 40
0.6
176
     1
 41
30.0
176
     1
 63
     7
176
     1
 74
     0
176
     1
 91
        4
176
     1
 64
     7
176
     1
 65
   257
176
     1
 75
     1
176
     1
175
     1
176
     1
 42
1.0
176
     1
 92
        8
176
     1
 66
     7
176
     1
 43
1.0
176
     1
 76
     1
176
     1
 77
     6
176
     1
 78
     2
176
     1
 67
     7
176
     1
 79
     5
176
     1
170
     0
176
     1
171
     0
176
     1
290
     0
176
     1
 93
        1
176
     1
 44
0.0
176
     1
173
     0
176
     1
1001
ACAD
1000
AcDbSavedByObjectVersion
1070
     0
  0
VISUALSTYLE
  5
36
102
{ACAD_XDICTIONARY
360
586
102
}
102
{ACAD_REACTORS
330
2A
102
}
330
2A
100
AcDbVisualStyle
  2
Brighten
 70
    12
177
     2
291
     1
 71
     2
176
     1
 72
     2
176
     1
 73
     0
176
     1
 90
        0
176
     1
 40
0.6
176
     1
 41
30.0
176
     1
 63
     7
176
     1
 74
     1
176
     1
 91
        4
176
     1
 64
     7
176
     1
 65
   257
176
     1
 75
     1
176
     1
175
     1
176
     1
 42
1.0
176
     1
 92
        8
176
     1
 66
     7
176
     1
 43
1.0
176
     1
 76
     1
176
     1
 77
     6
176
     1
 78
     2
176
     1
 67
     7
176
     1
 79
     5
176
     1
170
     0
176
     1
171
     0
176
     1
290
     0
176
     1
 93
        1
176
     1
 44
50.0
176
     1
173
     0
176
     1
1001
ACAD
1000
AcDbSavedByObjectVersion
1070
     0
  0
VISUALSTYLE
  5
3A
102
{ACAD_XDICTIONARY
360
58E
102
}
102
{ACAD_REACTORS
330
2A
102
}
330
2A
100
AcDbVisualStyle
  2
ColorChange
 70
    16
177
     2
291
     1
 71
     2
176
     1
 72
     2
176
     1
 73
     3
176
     1
 90
        0
176
     1
 40
0.6
176
     1
 41
30.0
176
     1
 63
     8
176
     1
 74
     1
176
     1
 91
        4
176
     1
 64
     7
176
     1
 65
   257
176
     1
 75
     1
176
     1
175
     1
176
     1
 42
1.0
176
     1
 92
        8
176
     1
 66
     8
176
     1
 43
1.0
176
     1
 76
     1
176
     1
 77
     6
176
     1
 78
     2
176
     1
 67
     7
176
     1
 79
     5
176
     1
170
     0
176
     1
171
     0
176
     1
290
     0
176
     1
 93
        1
176
     1
 44
0.0
176
     1
173
     0
176
     1
1001
ACAD
1000
AcDbSavedByObjectVersion
1070
     0
  0
VISUALSTYLE
  5
34
102
{ACAD_XDICTIONARY
360
582
102
}
102
{ACAD_REACTORS
330
2A
102
}
330
2A
100
AcDbVisualStyle
  2
Conceptual
 70
     9
177
     2
291
     0
 71
     3
176
     1
 72
     2
176
     1
 73
     0
176
     1
 90
        0
176
     1
 40
0.6
176
     1
 41
30.0
176
     1
 63
     7
176
     1
 74
     2
176
     1
 91
        2
176
     1
 64
     7
176
     1
 65
   257
176
     1
 75
     1
176
     1
175
     1
176
     1
 42
179.0
176
     1
 92
        8
176
     1
 66
     7
176
     1
 43
1.0
176
     1
 76
     1
176
     1
 77
     6
176
     1
 78
     2
176
     1
 67
     7
176
     1
 79
     3
176
     1
170
     0
176
     1
171
     0
176
     1
290
     0
176
     1
 93
        1
176
     1
 44
0.0
176
     1
173
     0
176
     1
1001
ACAD
1000
AcDbSavedByObjectVersion
1070
     0
  0
VISUALSTYLE
  5
35
102
{ACAD_XDICTIONARY
360
584
102
}
102
{ACAD_REACTORS
330
2A
102
}
330
2A
100
AcDbVisualStyle
  2
Dim
 70
    11
177
     2
291
     1
 71
     2
176
     1
 72
     2
176
     1
 73
     0
176
     1
 90
        0
176
     1
 40
0.6
176
     1
 41
30.0
176
     1
 63
     7
176
     1
 74
     1
176
     1
 91
        4
176
     1
 64
     7
176
     1
 65
   257
176
     1
 75
     1
176
     1
175
     1
176
     1
 42
1.0
176
     1
 92
        8
176
     1
 66
     7
176
     1
 43
1.0
176
     1
 76
     1
176
     1
 77
     6
176
     1
 78
     2
176
     1
 67
     7
176
     1
 79
     5
176
     1
170
     0
176
     1
171
     0
176
     1
290
     0
176
     1
 93
        1
176
     1
 44
-50.0
176
     1
173
     0
176
     1
1001
ACAD
1000
AcDbSavedByObjectVersion
1070
     0
  0
VISUALSTYLE
  5
3D
102
{ACAD_XDICTIONARY
360
594
102
}
102
{ACAD_REACTORS
330
2A
102
}
330
2A
100
AcDbVisualStyle
  2
EdgeColorOff
 70
    22
177
     2
291
     1
 71
     2
176
     1
 72
     2
176
     1
 73
     0
176
     1
 90
        0
176
     1
 40
0.6
176
     1
 41
30.0
176
     1
 63
     7
176
     1
 74
     1
176
     1
 91
        4
176
     1
 64
     7
176
     1
 65
   257
176
     1
 75
     1
176
     1
175
     1
176
     1
 42
1.0
176
     1
 92
        8
176
     1
 66
     7
176
     1
 43
1.0
176
     1
 76
     1
176
     1
 77
     6
176
     1
 78
     2
176
     1
 67
     7
176
     1
 79
     5
176
     1
170
     0
176
     1
171
     0
176
     1
290
     0
176
     1
 93
        1
176
     1
 44
0.0
176
     1
173
     0
176
     1
1001
ACAD
1000
AcDbSavedByObjectVersion
1070
     0
  0
VISUALSTYLE
  5
39
102
{ACAD_XDICTIONARY
360
58C
102
}
102
{ACAD_REACTORS
330
2A
102
}
330
2A
100
AcDbVisualStyle
  2
Facepattern
 70
    15
177
     2
291
     1
 71
     2
176
     1
 72
     2
176
     1
 73
     0
176
     1
 90
        0
176
     1
 40
0.6
176
     1
 41
30.0
176
     1
 63
     7
176
     1
 74
     1
176
     1
 91
        4
176
     1
 64
     7
176
     1
 65
   257
176
     1
 75
     1
176
     1
175
     1
176
     1
 42
1.0
176
     1
 92
        8
176
     1
 66
     7
176
     1
 43
1.0
176
     1
 76
     1
176
     1
 77
     6
176
     1
 78
     2
176
     1
 67
     7
176
     1
 79
     5
176
     1
170
     0
176
     1
171
     0
176
     1
290
     0
176
     1
 93
        1
176
     1
 44
0.0
176
     1
173
     0
176
     1
1001
ACAD
1000
AcDbSavedByObjectVersion
1070
     0
  0
VISUALSTYLE
  5
2B
102
{ACAD_XDICTIONARY
360
570
102
}
102
{ACAD_REACTORS
330
2A
102
}
330
2A
100
AcDbVisualStyle
  2
Flat
 70
     0
177
     2
291
     1
 71
     2
176
     1
 72
     1
176
     1
 73
     1
176
     1
 90
        2
176
     1
 40
0.6
176
     1
 41
30.0
176
     1
 63
     7
176
     1
 74
     0
176
     1
 91
        0
176
     1
 64
     7
176
     1
 65
   257
176
     1
 75
     1
176
     1
175
     1
176
     1
 42
1.0
176
     1
 92
        8
176
     1
 66
     7
176
     1
 43
1.0
176
     1
 76
     1
176
     1
 77
     6
176
     1
 78
     2
176
     1
 67
     7
176
     1
 79
     5
176
     1
170
     0
176
     1
171
     0
176
     1
290
     0
176
     1
 93
       13
176
     1
 44
0.0
176
     1
173
     0
176
     1
1001
ACAD
1000
AcDbSavedByObjectVersion
1070
     0
  0
VISUALSTYLE
  5
2C
102
{ACAD_XDICTIONARY
360
572
102
}
102
{ACAD_REACTORS
330
2A
102
}
330
2A
100
AcDbVisualStyle
  2
FlatWithEdges
 70
     1
177
     2
291
     1
 71
     2
176
     1
 72
     1
176
     1
 73
     1
176
     1
 90
        2
176
     1
 40
0.6
176
     1
 41
30.0
176
     1
 63
     7
176
     1
 74
     1
176
     1
 91
        0
176
     1
 64
     7
176
     1
 65
   257
176
     1
 75
     1
176
     1
175
     1
176
     1
 42
1.0
176
     1
 92
        0
176
     1
 66
   257
176
     1
 43
1.0
176
     1
 76
     1
176
     1
 77
     6
176
     1
 78
     2
176
     1
 67
     7
176
     1
 79
     5
176
     1
170
     0
176
     1
171
     0
176
     1
290
     0
176
     1
 93
       13
176
     1
 44
0.0
176
     1
173
     0
176
     1
1001
ACAD
1000
AcDbSavedByObjectVersion
1070
     0
  0
VISUALSTYLE
  5
2D
102
{ACAD_XDICTIONARY
360
574
102
}
102
{ACAD_REACTORS
330
2A
102
}
330
2A
100
AcDbVisualStyle
  2
Gouraud
 70
     2
177
     2
291
     1
 71
     2
176
     1
 72
     2
176
     1
 73
     1
176
     1
 90
        2
176
     1
 40
0.6
176
     1
 41
30.0
176
     1
 63
     7
176
     1
 74
     0
176
     1
 91
        0
176
     1
 64
     7
176
     1
 65
   257
176
     1
 75
     1
176
     1
175
     1
176
     1
 42
1.0
176
     1
 92
        0
176
     1
 66
     7
176
     1
 43
1.0
176
     1
 76
     1
176
     1
 77
     6
176
     1
 78
     2
176
     1
 67
     7
176
     1
 79
     5
176
     1
170
     0
176
     1
171
     0
176
     1
290
     0
176
     1
 93
       13
176
     1
 44
0.0
176
     1
173
     0
176
     1
1001
ACAD
1000
AcDbSavedByObjectVersion
1070
     0
  0
VISUALSTYLE
  5
2E
102
{ACAD_XDICTIONARY
360
576
102
}
102
{ACAD_REACTORS
330
2A
102
}
330
2A
100
AcDbVisualStyle
  2
GouraudWithEdges
 70
     3
177
     2
291
     1
 71
     2
176
     1
 72
     2
176
     1
 73
     1
176
     1
 90
        2
176
     1
 40
0.6
176
     1
 41
30.0
176
     1
 63
     7
176
     1
 74
     1
176
     1
 91
        0
176
     1
 64
     7
176
     1
 65
   257
176
     1
 75
     1
176
     1
175
     1
176
     1
 42
1.0
176
     1
 92
        0
176
     1
 66
   257
176
     1
 43
1.0
176
     1
 76
     1
176
     1
 77
     6
176
     1
 78
     2
176
     1
 67
     7
176
     1
 79
     5
176
     1
170
     0
176
     1
171
     0
176
     1
290
     0
176
     1
 93
       13
176
     1
 44
0.0
176
     1
173
     0
176
     1
1001
ACAD
1000
AcDbSavedByObjectVersion
1070
     0
  0
VISUALSTYLE
  5
31
102
{ACAD_XDICTIONARY
360
57C
102
}
102
{ACAD_REACTORS
330
2A
102
}
330
2A
100
AcDbVisualStyle
  2
Hidden
 70
     6
177
     2
291
     0
 71
     1
176
     1
 72
     2
176
     1
 73
     2
176
     1
 90
        0
176
     1
 40
0.6
176
     1
 41
30.0
176
     1
 63
     7
176
     1
 74
     2
176
     1
 91
        2
176
     1
 64
     7
176
     1
 65
   257
176
     1
 75
     2
176
     1
175
     1
176
     1
 42
40.0
176
     1
 92
        0
176
     1
 66
   257
176
     1
 43
1.0
176
     1
 76
     1
176
     1
 77
     6
176
     1
 78
     2
176
     1
 67
     7
176
     1
 79
     3
176
     1
170
     0
176
     1
171
     0
176
     1
290
     0
176
     1
 93
        1
176
     1
 44
0.0
176
     1
173
     0
176
     1
1001
ACAD
1000
AcDbSavedByObjectVersion
1070
     0
  0
VISUALSTYLE
  5
3B
102
{ACAD_XDICTIONARY
360
590
102
}
102
{ACAD_REACTORS
330
2A
102
}
330
2A
100
AcDbVisualStyle
  2
JitterOff
 70
    20
177
     2
291
     1
 71
     2
176
     1
 72
     2
176
     1
 73
     0
176
     1
 90
        0
176
     1
 40
0.6
176
     1
 41
30.0
176
     1
 63
     7
176
     1
 74
     1
176
     1
 91
        4
176
     1
 64
     7
176
     1
 65
   257
176
     1
 75
     1
176
     1
175
     1
176
     1
 42
1.0
176
     1
 92
       10
176
     1
 66
     7
176
     1
 43
1.0
176
     1
 76
     1
176
     1
 77
     6
176
     1
 78
     2
176
     1
 67
     7
176
     1
 79
     5
176
     1
170
     0
176
     1
171
     0
176
     1
290
     0
176
     1
 93
        1
176
     1
 44
0.0
176
     1
173
     0
176
     1
1001
ACAD
1000
AcDbSavedByObjectVersion
1070
     0
  0
VISUALSTYLE
  5
38
102
{ACAD_XDICTIONARY
360
58A
102
}
102
{ACAD_REACTORS
330
2A
102
}
330
2A
100
AcDbVisualStyle
  2
Linepattern
 70
    14
177
     2
291
     1
 71
     2
176
     1
 72
     2
176
     1
 73
     0
176
     1
 90
        0
176
     1
 40
0.6
176
     1
 41
30.0
176
     1
 63
     7
176
     1
 74
     1
176
     1
 91
        4
176
     1
 64
     7
176
     1
 65
   257
176
     1
 75
     7
176
     1
175
     7
176
     1
 42
1.0
176
     1
 92
        8
176
     1
 66
     7
176
     1
 43
1.0
176
     1
 76
     1
176
     1
 77
     6
176
     1
 78
     2
176
     1
 67
     7
176
     1
 79
     5
176
     1
170
     0
176
     1
171
     0
176
     1
290
     0
176
     1
 93
        1
176
     1
 44
0.0
176
     1
173
     0
176
     1
1001
ACAD
1000
AcDbSavedByObjectVersion
1070
     0
  0
VISUALSTYLE
  5
3C
102
{ACAD_XDICTIONARY
360
592
102
}
102
{ACAD_REACTORS
330
2A
102
}
330
2A
100
AcDbVisualStyle
  2
OverhangOff
 70
    21
177
     2
291
     1
 71
     2
176
     1
 72
     2
176
     1
 73
     0
176
     1
 90
        0
176
     1
 40
0.6
176
     1
 41
30.0
176
     1
 63
     7
176
     1
 74
     1
176
     1
 91
        4
176
     1
 64
     7
176
     1
 65
   257
176
     1
 75
     1
176
     1
175
     1
176
     1
 42
1.0
176
     1
 92
        9
176
     1
 66
     7
176
     1
 43
1.0
176
     1
 76
     1
176
     1
 77
     6
176
     1
 78
     2
176
     1
 67
     7
176
     1
 79
     5
176
     1
170
     0
176
     1
171
     0
176
     1
290
     0
176
     1
 93
        1
176
     1
 44
0.0
176
     1
173
     0
176
     1
1001
ACAD
1000
AcDbSavedByObjectVersion
1070
     0
  0
VISUALSTYLE
  5
33
102
{ACAD_XDICTIONARY
360
580
102
}
102
{ACAD_REACTORS
330
2A
102
}
330
2A
100
AcDbVisualStyle
  2
Realistic
 70
     8
177
     2
291
     0
 71
     2
176
     1
 72
     2
176
     1
 73
     0
176
     1
 90
        2
176
     1
 40
0.6
176
     1
 41
30.0
176
     1
 63
     7
176
     1
 74
     0
176
     1
 91
        0
176
     1
 64
     7
176
     1
 65
   257
176
     1
 75
     1
176
     1
175
     1
176
     1
 42
1.0
176
     1
 92
        8
176
     1
 66
   257
176
     1
 43
1.0
176
     1
 76
     1
176
     1
 77
     6
176
     1
 78
     2
176
     1
 67
     7
176
     1
 79
     3
176
     1
170
     0
176
     1
171
     0
176
     1
290
     0
176
     1
 93
       13
176
     1
 44
0.0
176
     1
173
     0
176
     1
1001
ACAD
1000
AcDbSavedByObjectVersion
1070
     0
  0
VISUALSTYLE
  5
42
102
{ACAD_XDICTIONARY
360
59E
102
}
102
{ACAD_REACTORS
330
2A
102
}
330
2A
100
AcDbVisualStyle
  2
Shaded
 70
    27
177
     2
291
     0
 71
     2
176
     1
 72
     2
176
     1
 73
     1
176
     1
 90
        2
176
     1
 40
0.6
176
     1
 41
30.0
176
     1
 63
     7
176
     1
 74
     0
176
     1
 91
        4
176
     1
 64
     7
176
     1
 65
   257
176
     1
 75
     1
176
     1
175
     1
176
     1
 42
1.0
176
     1
 92
        8
176
     1
 66
   257
176
     1
 43
1.0
176
     1
 76
     1
176
     1
 77
     6
176
     1
 78
     2
176
     1
 67
     8
176
     1
 79
     3
176
     1
170
     0
176
     1
171
     0
176
     1
290
     0
176
     1
 93
        5
176
     1
 44
0.0
176
     1
173
     0
176
     1
1001
ACAD
1000
AcDbSavedByObjectVersion
1070
     0
  0
VISUALSTYLE
  5
3B8
102
{ACAD_XDICTIONARY
360
5A2
102
}
102
{ACAD_REACTORS
330
2A
102
}
330
2A
100
AcDbVisualStyle
  2
Shaded with edges
 70
    26
177
     2
291
     0
 71
     2
176
     1
 72
     2
176
     1
 73
     1
176
     1
 90
        2
176
     1
 40
0.6
176
     1
 41
30.0
176
     1
 63
     7
176
     1
 74
     1
176
     1
 91
        2
176
     1
 64
     7
176
     1
 65
   257
176
     1
 75
     2
176
     1
175
     1
176
     1
 42
1.0
176
     1
 92
        8
176
     1
 66
   257
176
     1
 43
1.0
176
     1
 76
     1
176
     1
 77
     6
176
     1
 78
     2
176
     1
 67
     7
176
     1
 79
     3
176
     1
170
     0
176
     1
171
     0
176
     1
290
     0
176
     1
 93
        5
176
     1
 44
0.0
176
     1
173
     0
176
     1
1001
ACAD
1000
AcDbSavedByObjectVersion
1070
     0
  0
VISUALSTYLE
  5
41
102
{ACAD_XDICTIONARY
360
59C
102
}
102
{ACAD_REACTORS
330
2A
102
}
330
2A
100
AcDbVisualStyle
  2
Shaded with edges
 70
    26
177
     2
291
     0
 71
     2
176
     1
 72
     2
176
     1
 73
     1
176
     1
 90
        2
176
     1
 40
0.6
176
     1
 41
30.0
176
     1
 63
     7
176
     1
 74
     1
176
     1
 91
        2
176
     1
 64
     7
176
     1
 65
   257
176
     1
 75
     2
176
     1
175
     1
176
     1
 42
1.0
176
     1
 92
        8
176
     1
 66
   257
176
     1
 43
1.0
176
     1
 76
     1
176
     1
 77
     6
176
     1
 78
     2
176
     1
 67
     7
176
     1
 79
     3
176
     1
170
     0
176
     1
171
     0
176
     1
290
     0
176
     1
 93
        5
176
     1
 44
0.0
176
     1
173
     0
176
     1
1001
ACAD
1000
AcDbSavedByObjectVersion
1070
     0
  0
VISUALSTYLE
  5
3B7
102
{ACAD_XDICTIONARY
360
5A0
102
}
102
{ACAD_REACTORS
330
2A
102
}
330
2A
100
AcDbVisualStyle
  2
Shades of Gray
 70
    23
177
     2
291
     0
 71
     2
176
     1
 72
     2
176
     1
 73
     3
176
     1
 90
        0
176
     1
 40
0.6
176
     1
 41
30.0
176
     1
 63
     7
176
     1
 74
     2
176
     1
 91
        2
176
     1
 64
     7
176
     1
 65
     7
176
     1
 75
     1
176
     1
175
     1
176
     1
 42
40.0
176
     1
 92
        8
176
     1
 66
     7
176
     1
 43
1.0
176
     1
 76
     1
176
     1
 77
     6
176
     1
 78
     2
176
     1
 67
     7
176
     1
 79
     3
176
     1
170
     0
176
     1
171
     0
176
     1
290
     0
176
     1
 93
        1
176
     1
 44
0.0
176
     1
173
     0
176
     1
1001
ACAD
1000
AcDbSavedByObjectVersion
1070
     0
  0
VISUALSTYLE
  5
3E
102
{ACAD_XDICTIONARY
360
596
102
}
102
{ACAD_REACTORS
330
2A
102
}
330
2A
100
AcDbVisualStyle
  2
Shades of Gray
 70
    23
177
     2
291
     0
 71
     2
176
     1
 72
     2
176
     1
 73
     3
176
     1
 90
        0
176
     1
 40
0.6
176
     1
 41
30.0
176
     1
 63
     7
176
     1
 74
     2
176
     1
 91
        2
176
     1
 64
     7
176
     1
 65
     7
176
     1
 75
     1
176
     1
175
     1
176
     1
 42
40.0
176
     1
 92
        8
176
     1
 66
     7
176
     1
 43
1.0
176
     1
 76
     1
176
     1
 77
     6
176
     1
 78
     2
176
     1
 67
     7
176
     1
 79
     3
176
     1
170
     0
176
     1
171
     0
176
     1
290
     0
176
     1
 93
        1
176
     1
 44
0.0
176
     1
173
     0
176
     1
1001
ACAD
1000
AcDbSavedByObjectVersion
1070
     0
  0
VISUALSTYLE
  5
3F
102
{ACAD_XDICTIONARY
360
598
102
}
102
{ACAD_REACTORS
330
2A
102
}
330
2A
100
AcDbVisualStyle
  2
Sketchy
 70
    24
177
     2
291
     0
 71
     1
176
     1
 72
     2
176
     1
 73
     2
176
     1
 90
        0
176
     1
 40
0.6
176
     1
 41
30.0
176
     1
 63
     7
176
     1
 74
     2
176
     1
 91
        2
176
     1
 64
     7
176
     1
 65
     7
176
     1
 75
     1
176
     1
175
     1
176
     1
 42
40.0
176
     1
 92
       11
176
     1
 66
     7
176
     1
 43
1.0
176
     1
 76
     1
176
     1
 77
     6
176
     1
 78
     2
176
     1
 67
     7
176
     1
 79
     6
176
     1
170
     0
176
     1
171
     0
176
     1
290
     0
176
     1
 93
        1
176
     1
 44
0.0
176
     1
173
     0
176
     1
1001
ACAD
1000
AcDbSavedByObjectVersion
1070
     0
  0
VISUALSTYLE
  5
37
102
{ACAD_XDICTIONARY
360
588
102
}
102
{ACAD_REACTORS
330
2A
102
}
330
2A
100
AcDbVisualStyle
  2
Thicken
 70
    13
177
     2
291
     1
 71
     2
176
     1
 72
     2
176
     1
 73
     0
176
     1
 90
        0
176
     1
 40
0.6
176
     1
 41
30.0
176
     1
 63
     7
176
     1
 74
     1
176
     1
 91
        4
176
     1
 64
     7
176
     1
 65
   257
176
     1
 75
     1
176
     1
175
     1
176
     1
 42
1.0
176
     1
 92
       12
176
     1
 66
     7
176
     1
 43
1.0
176
     1
 76
     1
176
     1
 77
     6
176
     1
 78
     2
176
     1
 67
     7
176
     1
 79
     5
176
     1
170
     0
176
     1
171
     0
176
     1
290
     0
176
     1
 93
        1
176
     1
 44
0.0
176
     1
173
     0
176
     1
1001
ACAD
1000
AcDbSavedByObjectVersion
1070
     0
  0
VISUALSTYLE
  5
30
102
{ACAD_XDICTIONARY
360
57A
102
}
102
{ACAD_REACTORS
330
2A
102
}
330
2A
100
AcDbVisualStyle
  2
Wireframe
 70
     5
177
     2
291
     0
 71
     0
176
     1
 72
     2
176
     1
 73
     0
176
     1
 90
        0
176
     1
 40
0.6
176
     1
 41
30.0
176
     1
 63
     7
176
     1
 74
     1
176
     1
 91
        4
176
     1
 64
     7
176
     1
 65
   257
176
     1
 75
     1
176
     1
175
     1
176
     1
 42
1.0
176
     1
 92
        0
176
     1
 66
   257
176
     1
 43
1.0
176
     1
 76
     1
176
     1
 77
     6
176
     1
 78
     2
176
     1
 67
     7
176
     1
 79
     3
176
     1
170
     0
176
     1
171
     0
176
     1
290
     0
176
     1
 93
        1
176
     1
 44
0.0
176
     1
173
     0
176
     1
1001
ACAD
1000
AcDbSavedByObjectVersion
1070
     0
  0
VISUALSTYLE
  5
40
102
{ACAD_XDICTIONARY
360
59A
102
}
102
{ACAD_REACTORS
330
2A
102
}
330
2A
100
AcDbVisualStyle
  2
X-Ray
 70
    25
177
     2
291
     0
 71
     2
176
     1
 72
     2
176
     1
 73
     1
176
     1
 90
        1
176
     1
 40
0.5
176
     1
 41
30.0
176
     1
 63
     7
176
     1
 74
     1
176
     1
 91
        0
176
     1
 64
     7
176
     1
 65
   257
176
     1
 75
     1
176
     1
175
     1
176
     1
 42
1.0
176
     1
 92
        8
176
     1
 66
     7
176
     1
 43
1.0
176
     1
 76
     1
176
     1
 77
     6
176
     1
 78
     2
176
     1
 67
     7
176
     1
 79
     3
176
     1
170
     0
176
     1
171
     0
176
     1
290
     0
176
     1
 93
       13
176
     1
 44
0.0
176
     1
173
     0
176
     1
1001
ACAD
1000
AcDbSavedByObjectVersion
1070
     0
  0
DICTIONARYVAR
  5
3A9
102
{ACAD_REACTORS
330
39E
102
}
330
39E
100
DictionaryVariables
280
     0
  1
1:1
  0
DICTIONARYVAR
  5
3A0
102
{ACAD_REACTORS
330
39E
102
}
330
39E
100
DictionaryVariables
280
     0
  1
STANDARD
  0
DICTIONARYVAR
  5
39F
102
{ACAD_REACTORS
330
39E
102
}
330
39E
100
DictionaryVariables
280
     0
  1
STANDARD
  0
DICTIONARYVAR
  5
4A6
102
{ACAD_REACTORS
330
39E
102
}
330
39E
100
DictionaryVariables
280
     0
  1
Metric50
  0
DICTIONARYVAR
  5
4A7
102
{ACAD_REACTORS
330
39E
102
}
330
39E
100
DictionaryVariables
280
     0
  1
Metric50
  0
DICTIONARYVAR
  5
3A5
102
{ACAD_REACTORS
330
39E
102
}
330
39E
100
DictionaryVariables
280
     0
  1
2
  0
DICTIONARYVAR
  5
3A6
102
{ACAD_REACTORS
330
39E
102
}
330
39E
100
DictionaryVariables
280
     0
  1
1
  0
DICTIONARYVAR
  5
565
102
{ACAD_REACTORS
330
39E
102
}
330
39E
100
DictionaryVariables
280
     0
  1
0
  0
DICTIONARYVAR
  5
4A9
102
{ACAD_REACTORS
330
39E
102
}
330
39E
100
DictionaryVariables
280
     0
  1
1
  0
DICTIONARYVAR
  5
4AA
102
{ACAD_REACTORS
330
39E
102
}
330
39E
100
DictionaryVariables
280
     0
  1
15
  0
DICTIONARYVAR
  5
4A8
102
{ACAD_REACTORS
330
39E
102
}
330
39E
100
DictionaryVariables
280
     0
  1
0
  0
DICTIONARYVAR
  5
3AA
102
{ACAD_REACTORS
330
39E
102
}
330
39E
100
DictionaryVariables
280
     0
  1
1
  0
DICTIONARYVAR
  5
564
102
{ACAD_REACTORS
330
39E
102
}
330
39E
100
DictionaryVariables
280
     0
  1
127
  0
DICTIONARY
  5
5A6
330
3BF
100
AcDbDictionary
280
     1
281
     1
  3
ACAD_XREC_ROUNDTRIP
360
5A7
  0
DICTIONARY
  5
5A4
330
3BD
100
AcDbDictionary
280
     1
281
     1
  3
ACAD_XREC_ROUNDTRIP
360
5A5
  0
DICTIONARY
  5
513
330
3BB
100
AcDbDictionary
280
     1
281
     1
  3
ACAD_ROUNDTRIP_2008_TABLESTYLE_CELLSTYLEMAP
360
56E
  0
DICTIONARY
  5
578
330
2F
100
AcDbDictionary
280
     1
281
     1
  3
ACAD_XREC_ROUNDTRIP
360
579
  0
DICTIONARY
  5
57E
330
32
100
AcDbDictionary
280
     1
281
     1
  3
ACAD_XREC_ROUNDTRIP
360
57F
  0
DICTIONARY
  5
586
330
36
100
AcDbDictionary
280
     1
281
     1
  3
ACAD_XREC_ROUNDTRIP
360
587
  0
DICTIONARY
  5
58E
330
3A
100
AcDbDictionary
280
     1
281
     1
  3
ACAD_XREC_ROUNDTRIP
360
58F
  0
DICTIONARY
  5
582
330
34
100
AcDbDictionary
280
     1
281
     1
  3
ACAD_XREC_ROUNDTRIP
360
583
  0
DICTIONARY
  5
584
330
35
100
AcDbDictionary
280
     1
281
     1
  3
ACAD_XREC_ROUNDTRIP
360
585
  0
DICTIONARY
  5
594
330
3D
100
AcDbDictionary
280
     1
281
     1
  3
ACAD_XREC_ROUNDTRIP
360
595
  0
DICTIONARY
  5
58C
330
39
100
AcDbDictionary
280
     1
281
     1
  3
ACAD_XREC_ROUNDTRIP
360
58D
  0
DICTIONARY
  5
570
330
2B
100
AcDbDictionary
280
     1
281
     1
  3
ACAD_XREC_ROUNDTRIP
360
571
  0
DICTIONARY
  5
572
330
2C
100
AcDbDictionary
280
     1
281
     1
  3
ACAD_XREC_ROUNDTRIP
360
573
  0
DICTIONARY
  5
574
330
2D
100
AcDbDictionary
280
     1
281
     1
  3
ACAD_XREC_ROUNDTRIP
360
575
  0
DICTIONARY
  5
576
330
2E
100
AcDbDictionary
280
     1
281
     1
  3
ACAD_XREC_ROUNDTRIP
360
577
  0
DICTIONARY
  5
57C
330
31
100
AcDbDictionary
280
     1
281
     1
  3
ACAD_XREC_ROUNDTRIP
360
57D
  0
DICTIONARY
  5
590
330
3B
100
AcDbDictionary
280
     1
281
     1
  3
ACAD_XREC_ROUNDTRIP
360
591
  0
DICTIONARY
  5
58A
330
38
100
AcDbDictionary
280
     1
281
     1
  3
ACAD_XREC_ROUNDTRIP
360
58B
  0
DICTIONARY
  5
592
330
3C
100
AcDbDictionary
280
     1
281
     1
  3
ACAD_XREC_ROUNDTRIP
360
593
  0
DICTIONARY
  5
580
330
33
100
AcDbDictionary
280
     1
281
     1
  3
ACAD_XREC_ROUNDTRIP
360
581
  0
DICTIONARY
  5
59E
330
42
100
AcDbDictionary
280
     1
281
     1
  3
ACAD_XREC_ROUNDTRIP
360
59F
  0
DICTIONARY
  5
5A2
330
3B8
100
AcDbDictionary
280
     1
281
     1
  3
ACAD_XREC_ROUNDTRIP
360
5A3
  0
DICTIONARY
  5
59C
330
41
100
AcDbDictionary
280
     1
281
     1
  3
ACAD_XREC_ROUNDTRIP
360
59D
  0
DICTIONARY
  5
5A0
330
3B7
100
AcDbDictionary
280
     1
281
     1
  3
ACAD_XREC_ROUNDTRIP
360
5A1
  0
DICTIONARY
  5
596
330
3E
100
AcDbDictionary
280
     1
281
     1
  3
ACAD_XREC_ROUNDTRIP
360
597
  0
DICTIONARY
  5
598
330
3F
100
AcDbDictionary
280
     1
281
     1
  3
ACAD_XREC_ROUNDTRIP
360
599
  0
DICTIONARY
  5
588
330
37
100
AcDbDictionary
280
     1
281
     1
  3
ACAD_XREC_ROUNDTRIP
360
589
  0
DICTIONARY
  5
57A
330
30
100
AcDbDictionary
280
     1
281
     1
  3
ACAD_XREC_ROUNDTRIP
360
57B
  0
DICTIONARY
  5
59A
330
40
100
AcDbDictionary
280
     1
281
     1
  3
ACAD_XREC_ROUNDTRIP
360
59B
  0
XRECORD
  5
5A7
102
{ACAD_REACTORS
330
5A6
102
}
330
5A6
100
AcDbXrecord
280
     1
102
DISPLAYNAME
  1
Metric50
102
FLAGS
 90
        0
  0
XRECORD
  5
5A5
102
{ACAD_REACTORS
330
5A4
102
}
330
5A4
100
AcDbXrecord
280
     1
102
DISPLAYNAME
  1
Metric50
102
FLAGS
 90
        0
  0
CELLSTYLEMAP
  5
56E
102
{ACAD_REACTORS
330
513
102
}
330
513
100
AcDbCellStyleMap
 90
        3
300
CELLSTYLE
  1
TABLEFORMAT_BEGIN
 90
        5
170
     1
 91
        0
 92
    32768
 62
   257
 93
        1
300
CONTENTFORMAT
  1
CONTENTFORMAT_BEGIN
 90
        0
 91
        0
 92
      512
 93
        0
300

 40
0.0
140
1.0
 94
        5
 62
     0
340
11
144
6.0
309
CONTENTFORMAT_END
171
     1
301
MARGIN
  1
CELLMARGIN_BEGIN
 40
1.5
 40
1.5
 40
1.5
 40
1.5
 40
4.5
 40
4.5
309
CELLMARGIN_END
 94
        6
 95
        1
302
GRIDFORMAT
  1
GRIDFORMAT_BEGIN
 90
        0
 91
        1
 62
     0
 92
       -2
340
0
 93
        0
 40
1.125
309
GRIDFORMAT_END
 95
        2
302
GRIDFORMAT
  1
GRIDFORMAT_BEGIN
 90
        0
 91
        1
 62
     0
 92
       -2
340
0
 93
        0
 40
1.125
309
GRIDFORMAT_END
 95
        4
302
GRIDFORMAT
  1
GRIDFORMAT_BEGIN
 90
        0
 91
        1
 62
     0
 92
       -2
340
0
 93
        0
 40
1.125
309
GRIDFORMAT_END
 95
        8
302
GRIDFORMAT
  1
GRIDFORMAT_BEGIN
 90
        0
 91
        1
 62
     0
 92
       -2
340
0
 93
        0
 40
1.125
309
GRIDFORMAT_END
 95
       16
302
GRIDFORMAT
  1
GRIDFORMAT_BEGIN
 90
        0
 91
        1
 62
     0
 92
       -2
340
0
 93
        0
 40
1.125
309
GRIDFORMAT_END
 95
       32
302
GRIDFORMAT
  1
GRIDFORMAT_BEGIN
 90
        0
 91
        1
 62
     0
 92
       -2
340
0
 93
        0
 40
1.125
309
GRIDFORMAT_END
309
TABLEFORMAT_END
  1
CELLSTYLE_BEGIN
 90
        1
 91
        1
300
_TITLE
309
CELLSTYLE_END
300
CELLSTYLE
  1
TABLEFORMAT_BEGIN
 90
        5
170
     1
 91
        0
 92
        0
 62
   257
 93
        1
300
CONTENTFORMAT
  1
CONTENTFORMAT_BEGIN
 90
        0
 91
        0
 92
      512
 93
        0
300

 40
0.0
140
1.0
 94
        5
 62
     0
340
11
144
4.5
309
CONTENTFORMAT_END
171
     1
301
MARGIN
  1
CELLMARGIN_BEGIN
 40
1.5
 40
1.5
 40
1.5
 40
1.5
 40
4.5
 40
4.5
309
CELLMARGIN_END
 94
        6
 95
        1
302
GRIDFORMAT
  1
GRIDFORMAT_BEGIN
 90
        0
 91
        1
 62
     0
 92
       -2
340
0
 93
        0
 40
1.125
309
GRIDFORMAT_END
 95
        2
302
GRIDFORMAT
  1
GRIDFORMAT_BEGIN
 90
        0
 91
        1
 62
     0
 92
       -2
340
0
 93
        0
 40
1.125
309
GRIDFORMAT_END
 95
        4
302
GRIDFORMAT
  1
GRIDFORMAT_BEGIN
 90
        0
 91
        1
 62
     0
 92
       -2
340
0
 93
        0
 40
1.125
309
GRIDFORMAT_END
 95
        8
302
GRIDFORMAT
  1
GRIDFORMAT_BEGIN
 90
        0
 91
        1
 62
     0
 92
       -2
340
0
 93
        0
 40
1.125
309
GRIDFORMAT_END
 95
       16
302
GRIDFORMAT
  1
GRIDFORMAT_BEGIN
 90
        0
 91
        1
 62
     0
 92
       -2
340
0
 93
        0
 40
1.125
309
GRIDFORMAT_END
 95
       32
302
GRIDFORMAT
  1
GRIDFORMAT_BEGIN
 90
        0
 91
        1
 62
     0
 92
       -2
340
0
 93
        0
 40
1.125
309
GRIDFORMAT_END
309
TABLEFORMAT_END
  1
CELLSTYLE_BEGIN
 90
        2
 91
        1
300
_HEADER
309
CELLSTYLE_END
300
CELLSTYLE
  1
TABLEFORMAT_BEGIN
 90
        5
170
     1
 91
        0
 92
        0
 62
   257
 93
        1
300
CONTENTFORMAT
  1
CONTENTFORMAT_BEGIN
 90
        0
 91
        0
 92
      512
 93
        0
300

 40
0.0
140
1.0
 94
        2
 62
     0
340
11
144
4.5
309
CONTENTFORMAT_END
171
     1
301
MARGIN
  1
CELLMARGIN_BEGIN
 40
1.5
 40
1.5
 40
1.5
 40
1.5
 40
4.5
 40
4.5
309
CELLMARGIN_END
 94
        6
 95
        1
302
GRIDFORMAT
  1
GRIDFORMAT_BEGIN
 90
        0
 91
        1
 62
     0
 92
       -2
340
0
 93
        0
 40
1.125
309
GRIDFORMAT_END
 95
        2
302
GRIDFORMAT
  1
GRIDFORMAT_BEGIN
 90
        0
 91
        1
 62
     0
 92
       -2
340
0
 93
        0
 40
1.125
309
GRIDFORMAT_END
 95
        4
302
GRIDFORMAT
  1
GRIDFORMAT_BEGIN
 90
        0
 91
        1
 62
     0
 92
       -2
340
0
 93
        0
 40
1.125
309
GRIDFORMAT_END
 95
        8
302
GRIDFORMAT
  1
GRIDFORMAT_BEGIN
 90
        0
 91
        1
 62
     0
 92
       -2
340
0
 93
        0
 40
1.125
309
GRIDFORMAT_END
 95
       16
302
GRIDFORMAT
  1
GRIDFORMAT_BEGIN
 90
        0
 91
        1
 62
     0
 92
       -2
340
0
 93
        0
 40
1.125
309
GRIDFORMAT_END
 95
       32
302
GRIDFORMAT
  1
GRIDFORMAT_BEGIN
 90
        0
 91
        1
 62
     0
 92
       -2
340
0
 93
        0
 40
1.125
309
GRIDFORMAT_END
309
TABLEFORMAT_END
  1
CELLSTYLE_BEGIN
 90
        3
 91
        2
300
_DATA
309
CELLSTYLE_END
  0
XRECORD
  5
579
102
{ACAD_REACTORS
330
578
102
}
330
578
100
AcDbXrecord
280
     1
102
RTVSPost2010Prop28
280
     1
102
RTVSPost2010PropOp28
 70
     1
102
RTVSPost2010Prop29
280
     1
102
RTVSPost2010PropOp29
 70
     1
102
RTVSPost2010Prop30
280
     0
102
RTVSPost2010PropOp30
 70
     1
102
RTVSPost2010Prop31
280
     0
102
RTVSPost2010PropOp31
 70
     1
102
RTVSPost2010Prop32
280
     0
102
RTVSPost2010PropOp32
 70
     1
102
RTVSPost2010Prop33
280
     0
102
RTVSPost2010PropOp33
 70
     1
102
RTVSPost2010Prop34
280
     0
102
RTVSPost2010PropOp34
 70
     1
102
RTVSPost2010Prop35
280
     0
102
RTVSPost2010PropOp35
 70
     1
102
RTVSPost2010Prop36
280
     0
102
RTVSPost2010PropOp36
 70
     1
102
RTVSPost2010Prop37
 90
       50
102
RTVSPost2010PropOp37
 70
     1
102
RTVSPost2010Prop38
140
0.0
102
RTVSPost2010PropOp38
 70
     1
102
RTVSPost2010Prop39
140
1.0
102
RTVSPost2010PropOp39
 70
     1
102
RTVSPost2010Prop40
 90
        0
102
RTVSPost2010PropOp40
 70
     1
102
RTVSPost2010Prop41ColorIndex
 90
       18
102
RTVSPost2010Prop41ColorRGB
 90
        0
102
RTVSPost2010PropOp41
 70
     1
102
RTVSPost2010Prop42
 90
       50
102
RTVSPost2010PropOp42
 70
     1
102
RTVSPost2010Prop43
 90
        3
102
RTVSPost2010PropOp43
 70
     1
102
RTVSPost2010Prop44ColorIndex
 90
        5
102
RTVSPost2010Prop44ColorRGB
 90
      255
102
RTVSPost2010PropOp44
 70
     1
102
RTVSPost2010Prop45
280
     0
102
RTVSPost2010PropOp45
 70
     1
102
RTVSPost2010Prop46
 90
       50
102
RTVSPost2010PropOp46
 70
     1
102
RTVSPost2010Prop47
 90
       50
102
RTVSPost2010PropOp47
 70
     1
102
RTVSPost2010Prop48
 90
       50
102
RTVSPost2010PropOp48
 70
     1
102
RTVSPost2010Prop49
280
     0
102
RTVSPost2010PropOp49
 70
     1
102
RTVSPost2010Prop50
 90
       50
102
RTVSPost2010PropOp50
 70
     1
102
RTVSPost2010Prop51ColorIndex
 90
      256
102
RTVSPost2010Prop51ColorRGB
 90
-16777216
102
RTVSPost2010PropOp51
 70
     0
102
RTVSPost2010Prop52
140
1.0
102
RTVSPost2010PropOp52
 70
     0
102
RTVSPost2010Prop53
 90
        2
102
RTVSPost2010PropOp53
 70
     1
102
RTVSPost2010Prop54
  1
strokes_ogs.tif
102
RTVSPost2010PropOp54
 70
     1
102
RTVSPost2010Prop55
280
     0
102
RTVSPost2010PropOp55
 70
     1
102
RTVSPost2010Prop56
140
1.0
102
RTVSPost2010PropOp56
 70
     1
102
RTVSPost2010Prop57
140
1.0
102
RTVSPost2010PropOp57
 70
     1
  0
XRECORD
  5
57F
102
{ACAD_REACTORS
330
57E
102
}
330
57E
100
AcDbXrecord
280
     1
102
RTVSPost2010Prop28
280
     0
102
RTVSPost2010PropOp28
 70
     1
102
RTVSPost2010Prop29
280
     1
102
RTVSPost2010PropOp29
 70
     1
102
RTVSPost2010Prop30
280
     1
102
RTVSPost2010PropOp30
 70
     1
102
RTVSPost2010Prop31
280
     0
102
RTVSPost2010PropOp31
 70
     1
102
RTVSPost2010Prop32
280
     0
102
RTVSPost2010PropOp32
 70
     1
102
RTVSPost2010Prop33
280
     0
102
RTVSPost2010PropOp33
 70
     1
102
RTVSPost2010Prop34
280
     0
102
RTVSPost2010PropOp34
 70
     1
102
RTVSPost2010Prop35
280
     0
102
RTVSPost2010PropOp35
 70
     1
102
RTVSPost2010Prop36
280
     0
102
RTVSPost2010PropOp36
 70
     1
102
RTVSPost2010Prop37
 90
       50
102
RTVSPost2010PropOp37
 70
     1
102
RTVSPost2010Prop38
140
0.0
102
RTVSPost2010PropOp38
 70
     1
102
RTVSPost2010Prop39
140
1.0
102
RTVSPost2010PropOp39
 70
     1
102
RTVSPost2010Prop40
 90
        0
102
RTVSPost2010PropOp40
 70
     1
102
RTVSPost2010Prop41ColorIndex
 90
       18
102
RTVSPost2010Prop41ColorRGB
 90
        0
102
RTVSPost2010PropOp41
 70
     1
102
RTVSPost2010Prop42
 90
       50
102
RTVSPost2010PropOp42
 70
     1
102
RTVSPost2010Prop43
 90
        3
102
RTVSPost2010PropOp43
 70
     1
102
RTVSPost2010Prop44ColorIndex
 90
        5
102
RTVSPost2010Prop44ColorRGB
 90
      255
102
RTVSPost2010PropOp44
 70
     1
102
RTVSPost2010Prop45
280
     0
102
RTVSPost2010PropOp45
 70
     1
102
RTVSPost2010Prop46
 90
       50
102
RTVSPost2010PropOp46
 70
     1
102
RTVSPost2010Prop47
 90
       50
102
RTVSPost2010PropOp47
 70
     1
102
RTVSPost2010Prop48
 90
       50
102
RTVSPost2010PropOp48
 70
     1
102
RTVSPost2010Prop49
280
     0
102
RTVSPost2010PropOp49
 70
     1
102
RTVSPost2010Prop50
 90
       50
102
RTVSPost2010PropOp50
 70
     1
102
RTVSPost2010Prop51ColorIndex
 90
      256
102
RTVSPost2010Prop51ColorRGB
 90
-16777216
102
RTVSPost2010PropOp51
 70
     0
102
RTVSPost2010Prop52
140
1.0
102
RTVSPost2010PropOp52
 70
     0
102
RTVSPost2010Prop53
 90
        2
102
RTVSPost2010PropOp53
 70
     1
102
RTVSPost2010Prop54
  1
strokes_ogs.tif
102
RTVSPost2010PropOp54
 70
     1
102
RTVSPost2010Prop55
280
     0
102
RTVSPost2010PropOp55
 70
     1
102
RTVSPost2010Prop56
140
1.0
102
RTVSPost2010PropOp56
 70
     1
102
RTVSPost2010Prop57
140
1.0
102
RTVSPost2010PropOp57
 70
     1
  0
XRECORD
  5
587
102
{ACAD_REACTORS
330
586
102
}
330
586
100
AcDbXrecord
280
     1
102
RTVSPost2010Prop28
280
     0
102
RTVSPost2010PropOp28
 70
     1
102
RTVSPost2010Prop29
280
     1
102
RTVSPost2010PropOp29
 70
     1
102
RTVSPost2010Prop30
280
     1
102
RTVSPost2010PropOp30
 70
     1
102
RTVSPost2010Prop31
280
     0
102
RTVSPost2010PropOp31
 70
     1
102
RTVSPost2010Prop32
280
     0
102
RTVSPost2010PropOp32
 70
     1
102
RTVSPost2010Prop33
280
     0
102
RTVSPost2010PropOp33
 70
     1
102
RTVSPost2010Prop34
280
     0
102
RTVSPost2010PropOp34
 70
     1
102
RTVSPost2010Prop35
280
     0
102
RTVSPost2010PropOp35
 70
     1
102
RTVSPost2010Prop36
280
     0
102
RTVSPost2010PropOp36
 70
     1
102
RTVSPost2010Prop37
 90
       50
102
RTVSPost2010PropOp37
 70
     1
102
RTVSPost2010Prop38
140
0.0
102
RTVSPost2010PropOp38
 70
     1
102
RTVSPost2010Prop39
140
1.0
102
RTVSPost2010PropOp39
 70
     1
102
RTVSPost2010Prop40
 90
        0
102
RTVSPost2010PropOp40
 70
     1
102
RTVSPost2010Prop41ColorIndex
 90
       18
102
RTVSPost2010Prop41ColorRGB
 90
        0
102
RTVSPost2010PropOp41
 70
     1
102
RTVSPost2010Prop42
 90
       50
102
RTVSPost2010PropOp42
 70
     1
102
RTVSPost2010Prop43
 90
        3
102
RTVSPost2010PropOp43
 70
     1
102
RTVSPost2010Prop44ColorIndex
 90
        5
102
RTVSPost2010Prop44ColorRGB
 90
      255
102
RTVSPost2010PropOp44
 70
     1
102
RTVSPost2010Prop45
280
     0
102
RTVSPost2010PropOp45
 70
     1
102
RTVSPost2010Prop46
 90
       50
102
RTVSPost2010PropOp46
 70
     1
102
RTVSPost2010Prop47
 90
       50
102
RTVSPost2010PropOp47
 70
     1
102
RTVSPost2010Prop48
 90
       50
102
RTVSPost2010PropOp48
 70
     1
102
RTVSPost2010Prop49
280
     0
102
RTVSPost2010PropOp49
 70
     1
102
RTVSPost2010Prop50
 90
       50
102
RTVSPost2010PropOp50
 70
     1
102
RTVSPost2010Prop51ColorIndex
 90
      256
102
RTVSPost2010Prop51ColorRGB
 90
-16777216
102
RTVSPost2010PropOp51
 70
     0
102
RTVSPost2010Prop52
140
1.0
102
RTVSPost2010PropOp52
 70
     0
102
RTVSPost2010Prop53
 90
        2
102
RTVSPost2010PropOp53
 70
     1
102
RTVSPost2010Prop54
  1
strokes_ogs.tif
102
RTVSPost2010PropOp54
 70
     1
102
RTVSPost2010Prop55
280
     0
102
RTVSPost2010PropOp55
 70
     1
102
RTVSPost2010Prop56
140
1.0
102
RTVSPost2010PropOp56
 70
     1
102
RTVSPost2010Prop57
140
1.0
102
RTVSPost2010PropOp57
 70
     1
  0
XRECORD
  5
58F
102
{ACAD_REACTORS
330
58E
102
}
330
58E
100
AcDbXrecord
280
     1
102
RTVSPost2010Prop28
280
     0
102
RTVSPost2010PropOp28
 70
     1
102
RTVSPost2010Prop29
280
     1
102
RTVSPost2010PropOp29
 70
     1
102
RTVSPost2010Prop30
280
     1
102
RTVSPost2010PropOp30
 70
     1
102
RTVSPost2010Prop31
280
     0
102
RTVSPost2010PropOp31
 70
     1
102
RTVSPost2010Prop32
280
     0
102
RTVSPost2010PropOp32
 70
     1
102
RTVSPost2010Prop33
280
     0
102
RTVSPost2010PropOp33
 70
     1
102
RTVSPost2010Prop34
280
     0
102
RTVSPost2010PropOp34
 70
     1
102
RTVSPost2010Prop35
280
     0
102
RTVSPost2010PropOp35
 70
     1
102
RTVSPost2010Prop36
280
     0
102
RTVSPost2010PropOp36
 70
     1
102
RTVSPost2010Prop37
 90
       50
102
RTVSPost2010PropOp37
 70
     1
102
RTVSPost2010Prop38
140
0.0
102
RTVSPost2010PropOp38
 70
     1
102
RTVSPost2010Prop39
140
1.0
102
RTVSPost2010PropOp39
 70
     1
102
RTVSPost2010Prop40
 90
        0
102
RTVSPost2010PropOp40
 70
     1
102
RTVSPost2010Prop41ColorIndex
 90
       18
102
RTVSPost2010Prop41ColorRGB
 90
        0
102
RTVSPost2010PropOp41
 70
     1
102
RTVSPost2010Prop42
 90
       50
102
RTVSPost2010PropOp42
 70
     1
102
RTVSPost2010Prop43
 90
        3
102
RTVSPost2010PropOp43
 70
     1
102
RTVSPost2010Prop44ColorIndex
 90
        5
102
RTVSPost2010Prop44ColorRGB
 90
      255
102
RTVSPost2010PropOp44
 70
     1
102
RTVSPost2010Prop45
280
     0
102
RTVSPost2010PropOp45
 70
     1
102
RTVSPost2010Prop46
 90
       50
102
RTVSPost2010PropOp46
 70
     1
102
RTVSPost2010Prop47
 90
       50
102
RTVSPost2010PropOp47
 70
     1
102
RTVSPost2010Prop48
 90
       50
102
RTVSPost2010PropOp48
 70
     1
102
RTVSPost2010Prop49
280
     0
102
RTVSPost2010PropOp49
 70
     1
102
RTVSPost2010Prop50
 90
       50
102
RTVSPost2010PropOp50
 70
     1
102
RTVSPost2010Prop51ColorIndex
 90
      256
102
RTVSPost2010Prop51ColorRGB
 90
-16777216
102
RTVSPost2010PropOp51
 70
     0
102
RTVSPost2010Prop52
140
1.0
102
RTVSPost2010PropOp52
 70
     0
102
RTVSPost2010Prop53
 90
        2
102
RTVSPost2010PropOp53
 70
     1
102
RTVSPost2010Prop54
  1
strokes_ogs.tif
102
RTVSPost2010PropOp54
 70
     1
102
RTVSPost2010Prop55
280
     0
102
RTVSPost2010PropOp55
 70
     1
102
RTVSPost2010Prop56
140
1.0
102
RTVSPost2010PropOp56
 70
     1
102
RTVSPost2010Prop57
140
1.0
102
RTVSPost2010PropOp57
 70
     1
  0
XRECORD
  5
583
102
{ACAD_REACTORS
330
582
102
}
330
582
100
AcDbXrecord
280
     1
102
RTVSPost2010Prop28
280
     0
102
RTVSPost2010PropOp28
 70
     1
102
RTVSPost2010Prop29
280
     1
102
RTVSPost2010PropOp29
 70
     1
102
RTVSPost2010Prop30
280
     1
102
RTVSPost2010PropOp30
 70
     1
102
RTVSPost2010Prop31
280
     0
102
RTVSPost2010PropOp31
 70
     1
102
RTVSPost2010Prop32
280
     0
102
RTVSPost2010PropOp32
 70
     1
102
RTVSPost2010Prop33
280
     0
102
RTVSPost2010PropOp33
 70
     1
102
RTVSPost2010Prop34
280
     0
102
RTVSPost2010PropOp34
 70
     1
102
RTVSPost2010Prop35
280
     0
102
RTVSPost2010PropOp35
 70
     1
102
RTVSPost2010Prop36
280
     0
102
RTVSPost2010PropOp36
 70
     1
102
RTVSPost2010Prop37
 90
       50
102
RTVSPost2010PropOp37
 70
     1
102
RTVSPost2010Prop38
140
0.0
102
RTVSPost2010PropOp38
 70
     1
102
RTVSPost2010Prop39
140
1.0
102
RTVSPost2010PropOp39
 70
     1
102
RTVSPost2010Prop40
 90
        0
102
RTVSPost2010PropOp40
 70
     1
102
RTVSPost2010Prop41ColorIndex
 90
       18
102
RTVSPost2010Prop41ColorRGB
 90
        0
102
RTVSPost2010PropOp41
 70
     1
102
RTVSPost2010Prop42
 90
       50
102
RTVSPost2010PropOp42
 70
     1
102
RTVSPost2010Prop43
 90
        3
102
RTVSPost2010PropOp43
 70
     1
102
RTVSPost2010Prop44ColorIndex
 90
        5
102
RTVSPost2010Prop44ColorRGB
 90
      255
102
RTVSPost2010PropOp44
 70
     1
102
RTVSPost2010Prop45
280
     0
102
RTVSPost2010PropOp45
 70
     1
102
RTVSPost2010Prop46
 90
       50
102
RTVSPost2010PropOp46
 70
     1
102
RTVSPost2010Prop47
 90
       50
102
RTVSPost2010PropOp47
 70
     1
102
RTVSPost2010Prop48
 90
       50
102
RTVSPost2010PropOp48
 70
     1
102
RTVSPost2010Prop49
280
     0
102
RTVSPost2010PropOp49
 70
     1
102
RTVSPost2010Prop50
 90
       50
102
RTVSPost2010PropOp50
 70
     1
102
RTVSPost2010Prop51ColorIndex
 90
      256
102
RTVSPost2010Prop51ColorRGB
 90
-16777216
102
RTVSPost2010PropOp51
 70
     0
102
RTVSPost2010Prop52
140
1.0
102
RTVSPost2010PropOp52
 70
     0
102
RTVSPost2010Prop53
 90
        2
102
RTVSPost2010PropOp53
 70
     1
102
RTVSPost2010Prop54
  1
strokes_ogs.tif
102
RTVSPost2010PropOp54
 70
     1
102
RTVSPost2010Prop55
280
     0
102
RTVSPost2010PropOp55
 70
     1
102
RTVSPost2010Prop56
140
1.0
102
RTVSPost2010PropOp56
 70
     1
102
RTVSPost2010Prop57
140
1.0
102
RTVSPost2010PropOp57
 70
     1
  0
XRECORD
  5
585
102
{ACAD_REACTORS
330
584
102
}
330
584
100
AcDbXrecord
280
     1
102
RTVSPost2010Prop28
280
     0
102
RTVSPost2010PropOp28
 70
     1
102
RTVSPost2010Prop29
280
     1
102
RTVSPost2010PropOp29
 70
     1
102
RTVSPost2010Prop30
280
     1
102
RTVSPost2010PropOp30
 70
     1
102
RTVSPost2010Prop31
280
     0
102
RTVSPost2010PropOp31
 70
     1
102
RTVSPost2010Prop32
280
     0
102
RTVSPost2010PropOp32
 70
     1
102
RTVSPost2010Prop33
280
     0
102
RTVSPost2010PropOp33
 70
     1
102
RTVSPost2010Prop34
280
     0
102
RTVSPost2010PropOp34
 70
     1
102
RTVSPost2010Prop35
280
     0
102
RTVSPost2010PropOp35
 70
     1
102
RTVSPost2010Prop36
280
     0
102
RTVSPost2010PropOp36
 70
     1
102
RTVSPost2010Prop37
 90
       50
102
RTVSPost2010PropOp37
 70
     1
102
RTVSPost2010Prop38
140
0.0
102
RTVSPost2010PropOp38
 70
     1
102
RTVSPost2010Prop39
140
1.0
102
RTVSPost2010PropOp39
 70
     1
102
RTVSPost2010Prop40
 90
        0
102
RTVSPost2010PropOp40
 70
     1
102
RTVSPost2010Prop41ColorIndex
 90
       18
102
RTVSPost2010Prop41ColorRGB
 90
        0
102
RTVSPost2010PropOp41
 70
     1
102
RTVSPost2010Prop42
 90
       50
102
RTVSPost2010PropOp42
 70
     1
102
RTVSPost2010Prop43
 90
        3
102
RTVSPost2010PropOp43
 70
     1
102
RTVSPost2010Prop44ColorIndex
 90
        5
102
RTVSPost2010Prop44ColorRGB
 90
      255
102
RTVSPost2010PropOp44
 70
     1
102
RTVSPost2010Prop45
280
     0
102
RTVSPost2010PropOp45
 70
     1
102
RTVSPost2010Prop46
 90
       50
102
RTVSPost2010PropOp46
 70
     1
102
RTVSPost2010Prop47
 90
       50
102
RTVSPost2010PropOp47
 70
     1
102
RTVSPost2010Prop48
 90
       50
102
RTVSPost2010PropOp48
 70
     1
102
RTVSPost2010Prop49
280
     0
102
RTVSPost2010PropOp49
 70
     1
102
RTVSPost2010Prop50
 90
       50
102
RTVSPost2010PropOp50
 70
     1
102
RTVSPost2010Prop51ColorIndex
 90
      256
102
RTVSPost2010Prop51ColorRGB
 90
-16777216
102
RTVSPost2010PropOp51
 70
     0
102
RTVSPost2010Prop52
140
1.0
102
RTVSPost2010PropOp52
 70
     0
102
RTVSPost2010Prop53
 90
        2
102
RTVSPost2010PropOp53
 70
     1
102
RTVSPost2010Prop54
  1
strokes_ogs.tif
102
RTVSPost2010PropOp54
 70
     1
102
RTVSPost2010Prop55
280
     0
102
RTVSPost2010PropOp55
 70
     1
102
RTVSPost2010Prop56
140
1.0
102
RTVSPost2010PropOp56
 70
     1
102
RTVSPost2010Prop57
140
1.0
102
RTVSPost2010PropOp57
 70
     1
  0
XRECORD
  5
595
102
{ACAD_REACTORS
330
594
102
}
330
594
100
AcDbXrecord
280
     1
102
RTVSPost2010Prop28
280
     0
102
RTVSPost2010PropOp28
 70
     1
102
RTVSPost2010Prop29
280
     1
102
RTVSPost2010PropOp29
 70
     1
102
RTVSPost2010Prop30
280
     1
102
RTVSPost2010PropOp30
 70
     1
102
RTVSPost2010Prop31
280
     0
102
RTVSPost2010PropOp31
 70
     1
102
RTVSPost2010Prop32
280
     0
102
RTVSPost2010PropOp32
 70
     1
102
RTVSPost2010Prop33
280
     0
102
RTVSPost2010PropOp33
 70
     1
102
RTVSPost2010Prop34
280
     0
102
RTVSPost2010PropOp34
 70
     1
102
RTVSPost2010Prop35
280
     0
102
RTVSPost2010PropOp35
 70
     1
102
RTVSPost2010Prop36
280
     0
102
RTVSPost2010PropOp36
 70
     1
102
RTVSPost2010Prop37
 90
       50
102
RTVSPost2010PropOp37
 70
     1
102
RTVSPost2010Prop38
140
0.0
102
RTVSPost2010PropOp38
 70
     1
102
RTVSPost2010Prop39
140
1.0
102
RTVSPost2010PropOp39
 70
     1
102
RTVSPost2010Prop40
 90
        0
102
RTVSPost2010PropOp40
 70
     1
102
RTVSPost2010Prop41ColorIndex
 90
       18
102
RTVSPost2010Prop41ColorRGB
 90
        0
102
RTVSPost2010PropOp41
 70
     1
102
RTVSPost2010Prop42
 90
       50
102
RTVSPost2010PropOp42
 70
     1
102
RTVSPost2010Prop43
 90
        3
102
RTVSPost2010PropOp43
 70
     1
102
RTVSPost2010Prop44ColorIndex
 90
        5
102
RTVSPost2010Prop44ColorRGB
 90
      255
102
RTVSPost2010PropOp44
 70
     1
102
RTVSPost2010Prop45
280
     0
102
RTVSPost2010PropOp45
 70
     1
102
RTVSPost2010Prop46
 90
       50
102
RTVSPost2010PropOp46
 70
     1
102
RTVSPost2010Prop47
 90
       50
102
RTVSPost2010PropOp47
 70
     1
102
RTVSPost2010Prop48
 90
       50
102
RTVSPost2010PropOp48
 70
     1
102
RTVSPost2010Prop49
280
     0
102
RTVSPost2010PropOp49
 70
     1
102
RTVSPost2010Prop50
 90
       50
102
RTVSPost2010PropOp50
 70
     1
102
RTVSPost2010Prop51ColorIndex
 90
      256
102
RTVSPost2010Prop51ColorRGB
 90
-16777216
102
RTVSPost2010PropOp51
 70
     0
102
RTVSPost2010Prop52
140
1.0
102
RTVSPost2010PropOp52
 70
     0
102
RTVSPost2010Prop53
 90
        2
102
RTVSPost2010PropOp53
 70
     1
102
RTVSPost2010Prop54
  1
strokes_ogs.tif
102
RTVSPost2010PropOp54
 70
     1
102
RTVSPost2010Prop55
280
     0
102
RTVSPost2010PropOp55
 70
     1
102
RTVSPost2010Prop56
140
1.0
102
RTVSPost2010PropOp56
 70
     1
102
RTVSPost2010Prop57
140
1.0
102
RTVSPost2010PropOp57
 70
     1
  0
XRECORD
  5
58D
102
{ACAD_REACTORS
330
58C
102
}
330
58C
100
AcDbXrecord
280
     1
102
RTVSPost2010Prop28
280
     0
102
RTVSPost2010PropOp28
 70
     1
102
RTVSPost2010Prop29
280
     1
102
RTVSPost2010PropOp29
 70
     1
102
RTVSPost2010Prop30
280
     1
102
RTVSPost2010PropOp30
 70
     1
102
RTVSPost2010Prop31
280
     0
102
RTVSPost2010PropOp31
 70
     1
102
RTVSPost2010Prop32
280
     0
102
RTVSPost2010PropOp32
 70
     1
102
RTVSPost2010Prop33
280
     0
102
RTVSPost2010PropOp33
 70
     1
102
RTVSPost2010Prop34
280
     0
102
RTVSPost2010PropOp34
 70
     1
102
RTVSPost2010Prop35
280
     0
102
RTVSPost2010PropOp35
 70
     1
102
RTVSPost2010Prop36
280
     0
102
RTVSPost2010PropOp36
 70
     1
102
RTVSPost2010Prop37
 90
       50
102
RTVSPost2010PropOp37
 70
     1
102
RTVSPost2010Prop38
140
0.0
102
RTVSPost2010PropOp38
 70
     1
102
RTVSPost2010Prop39
140
1.0
102
RTVSPost2010PropOp39
 70
     1
102
RTVSPost2010Prop40
 90
        0
102
RTVSPost2010PropOp40
 70
     1
102
RTVSPost2010Prop41ColorIndex
 90
       18
102
RTVSPost2010Prop41ColorRGB
 90
        0
102
RTVSPost2010PropOp41
 70
     1
102
RTVSPost2010Prop42
 90
       50
102
RTVSPost2010PropOp42
 70
     1
102
RTVSPost2010Prop43
 90
        3
102
RTVSPost2010PropOp43
 70
     1
102
RTVSPost2010Prop44ColorIndex
 90
        5
102
RTVSPost2010Prop44ColorRGB
 90
      255
102
RTVSPost2010PropOp44
 70
     1
102
RTVSPost2010Prop45
280
     0
102
RTVSPost2010PropOp45
 70
     1
102
RTVSPost2010Prop46
 90
       50
102
RTVSPost2010PropOp46
 70
     1
102
RTVSPost2010Prop47
 90
       50
102
RTVSPost2010PropOp47
 70
     1
102
RTVSPost2010Prop48
 90
       50
102
RTVSPost2010PropOp48
 70
     1
102
RTVSPost2010Prop49
280
     0
102
RTVSPost2010PropOp49
 70
     1
102
RTVSPost2010Prop50
 90
       50
102
RTVSPost2010PropOp50
 70
     1
102
RTVSPost2010Prop51ColorIndex
 90
      256
102
RTVSPost2010Prop51ColorRGB
 90
-16777216
102
RTVSPost2010PropOp51
 70
     0
102
RTVSPost2010Prop52
140
1.0
102
RTVSPost2010PropOp52
 70
     0
102
RTVSPost2010Prop53
 90
        2
102
RTVSPost2010PropOp53
 70
     1
102
RTVSPost2010Prop54
  1
strokes_ogs.tif
102
RTVSPost2010PropOp54
 70
     1
102
RTVSPost2010Prop55
280
     0
102
RTVSPost2010PropOp55
 70
     1
102
RTVSPost2010Prop56
140
1.0
102
RTVSPost2010PropOp56
 70
     1
102
RTVSPost2010Prop57
140
1.0
102
RTVSPost2010PropOp57
 70
     1
  0
XRECORD
  5
571
102
{ACAD_REACTORS
330
570
102
}
330
570
100
AcDbXrecord
280
     1
102
RTVSPost2010Prop28
280
     0
102
RTVSPost2010PropOp28
 70
     1
102
RTVSPost2010Prop29
280
     1
102
RTVSPost2010PropOp29
 70
     1
102
RTVSPost2010Prop30
280
     1
102
RTVSPost2010PropOp30
 70
     1
102
RTVSPost2010Prop31
280
     0
102
RTVSPost2010PropOp31
 70
     1
102
RTVSPost2010Prop32
280
     0
102
RTVSPost2010PropOp32
 70
     1
102
RTVSPost2010Prop33
280
     0
102
RTVSPost2010PropOp33
 70
     1
102
RTVSPost2010Prop34
280
     0
102
RTVSPost2010PropOp34
 70
     1
102
RTVSPost2010Prop35
280
     0
102
RTVSPost2010PropOp35
 70
     1
102
RTVSPost2010Prop36
280
     0
102
RTVSPost2010PropOp36
 70
     1
102
RTVSPost2010Prop37
 90
       50
102
RTVSPost2010PropOp37
 70
     1
102
RTVSPost2010Prop38
140
0.0
102
RTVSPost2010PropOp38
 70
     1
102
RTVSPost2010Prop39
140
1.0
102
RTVSPost2010PropOp39
 70
     1
102
RTVSPost2010Prop40
 90
        0
102
RTVSPost2010PropOp40
 70
     1
102
RTVSPost2010Prop41ColorIndex
 90
       18
102
RTVSPost2010Prop41ColorRGB
 90
        0
102
RTVSPost2010PropOp41
 70
     1
102
RTVSPost2010Prop42
 90
       50
102
RTVSPost2010PropOp42
 70
     1
102
RTVSPost2010Prop43
 90
        3
102
RTVSPost2010PropOp43
 70
     1
102
RTVSPost2010Prop44ColorIndex
 90
        5
102
RTVSPost2010Prop44ColorRGB
 90
      255
102
RTVSPost2010PropOp44
 70
     1
102
RTVSPost2010Prop45
280
     0
102
RTVSPost2010PropOp45
 70
     1
102
RTVSPost2010Prop46
 90
       50
102
RTVSPost2010PropOp46
 70
     1
102
RTVSPost2010Prop47
 90
       50
102
RTVSPost2010PropOp47
 70
     1
102
RTVSPost2010Prop48
 90
       50
102
RTVSPost2010PropOp48
 70
     1
102
RTVSPost2010Prop49
280
     0
102
RTVSPost2010PropOp49
 70
     1
102
RTVSPost2010Prop50
 90
       50
102
RTVSPost2010PropOp50
 70
     1
102
RTVSPost2010Prop51ColorIndex
 90
      256
102
RTVSPost2010Prop51ColorRGB
 90
-16777216
102
RTVSPost2010PropOp51
 70
     0
102
RTVSPost2010Prop52
140
1.0
102
RTVSPost2010PropOp52
 70
     0
102
RTVSPost2010Prop53
 90
        2
102
RTVSPost2010PropOp53
 70
     1
102
RTVSPost2010Prop54
  1
strokes_ogs.tif
102
RTVSPost2010PropOp54
 70
     1
102
RTVSPost2010Prop55
280
     0
102
RTVSPost2010PropOp55
 70
     1
102
RTVSPost2010Prop56
140
1.0
102
RTVSPost2010PropOp56
 70
     1
102
RTVSPost2010Prop57
140
1.0
102
RTVSPost2010PropOp57
 70
     1
  0
XRECORD
  5
573
102
{ACAD_REACTORS
330
572
102
}
330
572
100
AcDbXrecord
280
     1
102
RTVSPost2010Prop28
280
     0
102
RTVSPost2010PropOp28
 70
     1
102
RTVSPost2010Prop29
280
     1
102
RTVSPost2010PropOp29
 70
     1
102
RTVSPost2010Prop30
280
     1
102
RTVSPost2010PropOp30
 70
     1
102
RTVSPost2010Prop31
280
     0
102
RTVSPost2010PropOp31
 70
     1
102
RTVSPost2010Prop32
280
     0
102
RTVSPost2010PropOp32
 70
     1
102
RTVSPost2010Prop33
280
     0
102
RTVSPost2010PropOp33
 70
     1
102
RTVSPost2010Prop34
280
     0
102
RTVSPost2010PropOp34
 70
     1
102
RTVSPost2010Prop35
280
     0
102
RTVSPost2010PropOp35
 70
     1
102
RTVSPost2010Prop36
280
     0
102
RTVSPost2010PropOp36
 70
     1
102
RTVSPost2010Prop37
 90
       50
102
RTVSPost2010PropOp37
 70
     1
102
RTVSPost2010Prop38
140
0.0
102
RTVSPost2010PropOp38
 70
     1
102
RTVSPost2010Prop39
140
1.0
102
RTVSPost2010PropOp39
 70
     1
102
RTVSPost2010Prop40
 90
        0
102
RTVSPost2010PropOp40
 70
     1
102
RTVSPost2010Prop41ColorIndex
 90
       18
102
RTVSPost2010Prop41ColorRGB
 90
        0
102
RTVSPost2010PropOp41
 70
     1
102
RTVSPost2010Prop42
 90
       50
102
RTVSPost2010PropOp42
 70
     1
102
RTVSPost2010Prop43
 90
        3
102
RTVSPost2010PropOp43
 70
     1
102
RTVSPost2010Prop44ColorIndex
 90
        5
102
RTVSPost2010Prop44ColorRGB
 90
      255
102
RTVSPost2010PropOp44
 70
     1
102
RTVSPost2010Prop45
280
     0
102
RTVSPost2010PropOp45
 70
     1
102
RTVSPost2010Prop46
 90
       50
102
RTVSPost2010PropOp46
 70
     1
102
RTVSPost2010Prop47
 90
       50
102
RTVSPost2010PropOp47
 70
     1
102
RTVSPost2010Prop48
 90
       50
102
RTVSPost2010PropOp48
 70
     1
102
RTVSPost2010Prop49
280
     0
102
RTVSPost2010PropOp49
 70
     1
102
RTVSPost2010Prop50
 90
       50
102
RTVSPost2010PropOp50
 70
     1
102
RTVSPost2010Prop51ColorIndex
 90
      256
102
RTVSPost2010Prop51ColorRGB
 90
-16777216
102
RTVSPost2010PropOp51
 70
     0
102
RTVSPost2010Prop52
140
1.0
102
RTVSPost2010PropOp52
 70
     0
102
RTVSPost2010Prop53
 90
        2
102
RTVSPost2010PropOp53
 70
     1
102
RTVSPost2010Prop54
  1
strokes_ogs.tif
102
RTVSPost2010PropOp54
 70
     1
102
RTVSPost2010Prop55
280
     0
102
RTVSPost2010PropOp55
 70
     1
102
RTVSPost2010Prop56
140
1.0
102
RTVSPost2010PropOp56
 70
     1
102
RTVSPost2010Prop57
140
1.0
102
RTVSPost2010PropOp57
 70
     1
  0
XRECORD
  5
575
102
{ACAD_REACTORS
330
574
102
}
330
574
100
AcDbXrecord
280
     1
102
RTVSPost2010Prop28
280
     0
102
RTVSPost2010PropOp28
 70
     1
102
RTVSPost2010Prop29
280
     1
102
RTVSPost2010PropOp29
 70
     1
102
RTVSPost2010Prop30
280
     1
102
RTVSPost2010PropOp30
 70
     1
102
RTVSPost2010Prop31
280
     0
102
RTVSPost2010PropOp31
 70
     1
102
RTVSPost2010Prop32
280
     0
102
RTVSPost2010PropOp32
 70
     1
102
RTVSPost2010Prop33
280
     0
102
RTVSPost2010PropOp33
 70
     1
102
RTVSPost2010Prop34
280
     0
102
RTVSPost2010PropOp34
 70
     1
102
RTVSPost2010Prop35
280
     0
102
RTVSPost2010PropOp35
 70
     1
102
RTVSPost2010Prop36
280
     0
102
RTVSPost2010PropOp36
 70
     1
102
RTVSPost2010Prop37
 90
       50
102
RTVSPost2010PropOp37
 70
     1
102
RTVSPost2010Prop38
140
0.0
102
RTVSPost2010PropOp38
 70
     1
102
RTVSPost2010Prop39
140
1.0
102
RTVSPost2010PropOp39
 70
     1
102
RTVSPost2010Prop40
 90
        0
102
RTVSPost2010PropOp40
 70
     1
102
RTVSPost2010Prop41ColorIndex
 90
       18
102
RTVSPost2010Prop41ColorRGB
 90
        0
102
RTVSPost2010PropOp41
 70
     1
102
RTVSPost2010Prop42
 90
       50
102
RTVSPost2010PropOp42
 70
     1
102
RTVSPost2010Prop43
 90
        3
102
RTVSPost2010PropOp43
 70
     1
102
RTVSPost2010Prop44ColorIndex
 90
        5
102
RTVSPost2010Prop44ColorRGB
 90
      255
102
RTVSPost2010PropOp44
 70
     1
102
RTVSPost2010Prop45
280
     0
102
RTVSPost2010PropOp45
 70
     1
102
RTVSPost2010Prop46
 90
       50
102
RTVSPost2010PropOp46
 70
     1
102
RTVSPost2010Prop47
 90
       50
102
RTVSPost2010PropOp47
 70
     1
102
RTVSPost2010Prop48
 90
       50
102
RTVSPost2010PropOp48
 70
     1
102
RTVSPost2010Prop49
280
     0
102
RTVSPost2010PropOp49
 70
     1
102
RTVSPost2010Prop50
 90
       50
102
RTVSPost2010PropOp50
 70
     1
102
RTVSPost2010Prop51ColorIndex
 90
      256
102
RTVSPost2010Prop51ColorRGB
 90
-16777216
102
RTVSPost2010PropOp51
 70
     0
102
RTVSPost2010Prop52
140
1.0
102
RTVSPost2010PropOp52
 70
     0
102
RTVSPost2010Prop53
 90
        2
102
RTVSPost2010PropOp53
 70
     1
102
RTVSPost2010Prop54
  1
strokes_ogs.tif
102
RTVSPost2010PropOp54
 70
     1
102
RTVSPost2010Prop55
280
     0
102
RTVSPost2010PropOp55
 70
     1
102
RTVSPost2010Prop56
140
1.0
102
RTVSPost2010PropOp56
 70
     1
102
RTVSPost2010Prop57
140
1.0
102
RTVSPost2010PropOp57
 70
     1
  0
XRECORD
  5
577
102
{ACAD_REACTORS
330
576
102
}
330
576
100
AcDbXrecord
280
     1
102
RTVSPost2010Prop28
280
     0
102
RTVSPost2010PropOp28
 70
     1
102
RTVSPost2010Prop29
280
     1
102
RTVSPost2010PropOp29
 70
     1
102
RTVSPost2010Prop30
280
     1
102
RTVSPost2010PropOp30
 70
     1
102
RTVSPost2010Prop31
280
     0
102
RTVSPost2010PropOp31
 70
     1
102
RTVSPost2010Prop32
280
     0
102
RTVSPost2010PropOp32
 70
     1
102
RTVSPost2010Prop33
280
     0
102
RTVSPost2010PropOp33
 70
     1
102
RTVSPost2010Prop34
280
     0
102
RTVSPost2010PropOp34
 70
     1
102
RTVSPost2010Prop35
280
     0
102
RTVSPost2010PropOp35
 70
     1
102
RTVSPost2010Prop36
280
     0
102
RTVSPost2010PropOp36
 70
     1
102
RTVSPost2010Prop37
 90
       50
102
RTVSPost2010PropOp37
 70
     1
102
RTVSPost2010Prop38
140
0.0
102
RTVSPost2010PropOp38
 70
     1
102
RTVSPost2010Prop39
140
1.0
102
RTVSPost2010PropOp39
 70
     1
102
RTVSPost2010Prop40
 90
        0
102
RTVSPost2010PropOp40
 70
     1
102
RTVSPost2010Prop41ColorIndex
 90
       18
102
RTVSPost2010Prop41ColorRGB
 90
        0
102
RTVSPost2010PropOp41
 70
     1
102
RTVSPost2010Prop42
 90
       50
102
RTVSPost2010PropOp42
 70
     1
102
RTVSPost2010Prop43
 90
        3
102
RTVSPost2010PropOp43
 70
     1
102
RTVSPost2010Prop44ColorIndex
 90
        5
102
RTVSPost2010Prop44ColorRGB
 90
      255
102
RTVSPost2010PropOp44
 70
     1
102
RTVSPost2010Prop45
280
     0
102
RTVSPost2010PropOp45
 70
     1
102
RTVSPost2010Prop46
 90
       50
102
RTVSPost2010PropOp46
 70
     1
102
RTVSPost2010Prop47
 90
       50
102
RTVSPost2010PropOp47
 70
     1
102
RTVSPost2010Prop48
 90
       50
102
RTVSPost2010PropOp48
 70
     1
102
RTVSPost2010Prop49
280
     0
102
RTVSPost2010PropOp49
 70
     1
102
RTVSPost2010Prop50
 90
       50
102
RTVSPost2010PropOp50
 70
     1
102
RTVSPost2010Prop51ColorIndex
 90
      256
102
RTVSPost2010Prop51ColorRGB
 90
-16777216
102
RTVSPost2010PropOp51
 70
     0
102
RTVSPost2010Prop52
140
1.0
102
RTVSPost2010PropOp52
 70
     0
102
RTVSPost2010Prop53
 90
        2
102
RTVSPost2010PropOp53
 70
     1
102
RTVSPost2010Prop54
  1
strokes_ogs.tif
102
RTVSPost2010PropOp54
 70
     1
102
RTVSPost2010Prop55
280
     0
102
RTVSPost2010PropOp55
 70
     1
102
RTVSPost2010Prop56
140
1.0
102
RTVSPost2010PropOp56
 70
     1
102
RTVSPost2010Prop57
140
1.0
102
RTVSPost2010PropOp57
 70
     1
  0
XRECORD
  5
57D
102
{ACAD_REACTORS
330
57C
102
}
330
57C
100
AcDbXrecord
280
     1
102
RTVSPost2010Prop28
280
     0
102
RTVSPost2010PropOp28
 70
     1
102
RTVSPost2010Prop29
280
     1
102
RTVSPost2010PropOp29
 70
     1
102
RTVSPost2010Prop30
280
     1
102
RTVSPost2010PropOp30
 70
     1
102
RTVSPost2010Prop31
280
     0
102
RTVSPost2010PropOp31
 70
     1
102
RTVSPost2010Prop32
280
     0
102
RTVSPost2010PropOp32
 70
     1
102
RTVSPost2010Prop33
280
     0
102
RTVSPost2010PropOp33
 70
     1
102
RTVSPost2010Prop34
280
     0
102
RTVSPost2010PropOp34
 70
     1
102
RTVSPost2010Prop35
280
     0
102
RTVSPost2010PropOp35
 70
     1
102
RTVSPost2010Prop36
280
     0
102
RTVSPost2010PropOp36
 70
     1
102
RTVSPost2010Prop37
 90
       50
102
RTVSPost2010PropOp37
 70
     1
102
RTVSPost2010Prop38
140
0.0
102
RTVSPost2010PropOp38
 70
     1
102
RTVSPost2010Prop39
140
1.0
102
RTVSPost2010PropOp39
 70
     1
102
RTVSPost2010Prop40
 90
        0
102
RTVSPost2010PropOp40
 70
     1
102
RTVSPost2010Prop41ColorIndex
 90
       18
102
RTVSPost2010Prop41ColorRGB
 90
        0
102
RTVSPost2010PropOp41
 70
     1
102
RTVSPost2010Prop42
 90
       50
102
RTVSPost2010PropOp42
 70
     1
102
RTVSPost2010Prop43
 90
        3
102
RTVSPost2010PropOp43
 70
     1
102
RTVSPost2010Prop44ColorIndex
 90
        5
102
RTVSPost2010Prop44ColorRGB
 90
      255
102
RTVSPost2010PropOp44
 70
     1
102
RTVSPost2010Prop45
280
     0
102
RTVSPost2010PropOp45
 70
     1
102
RTVSPost2010Prop46
 90
       50
102
RTVSPost2010PropOp46
 70
     1
102
RTVSPost2010Prop47
 90
       50
102
RTVSPost2010PropOp47
 70
     1
102
RTVSPost2010Prop48
 90
       50
102
RTVSPost2010PropOp48
 70
     1
102
RTVSPost2010Prop49
280
     0
102
RTVSPost2010PropOp49
 70
     1
102
RTVSPost2010Prop50
 90
       50
102
RTVSPost2010PropOp50
 70
     1
102
RTVSPost2010Prop51ColorIndex
 90
      256
102
RTVSPost2010Prop51ColorRGB
 90
-16777216
102
RTVSPost2010PropOp51
 70
     0
102
RTVSPost2010Prop52
140
1.0
102
RTVSPost2010PropOp52
 70
     0
102
RTVSPost2010Prop53
 90
        2
102
RTVSPost2010PropOp53
 70
     1
102
RTVSPost2010Prop54
  1
strokes_ogs.tif
102
RTVSPost2010PropOp54
 70
     1
102
RTVSPost2010Prop55
280
     0
102
RTVSPost2010PropOp55
 70
     1
102
RTVSPost2010Prop56
140
1.0
102
RTVSPost2010PropOp56
 70
     1
102
RTVSPost2010Prop57
140
1.0
102
RTVSPost2010PropOp57
 70
     1
  0
XRECORD
  5
591
102
{ACAD_REACTORS
330
590
102
}
330
590
100
AcDbXrecord
280
     1
102
RTVSPost2010Prop28
280
     0
102
RTVSPost2010PropOp28
 70
     1
102
RTVSPost2010Prop29
280
     1
102
RTVSPost2010PropOp29
 70
     1
102
RTVSPost2010Prop30
280
     1
102
RTVSPost2010PropOp30
 70
     1
102
RTVSPost2010Prop31
280
     0
102
RTVSPost2010PropOp31
 70
     1
102
RTVSPost2010Prop32
280
     0
102
RTVSPost2010PropOp32
 70
     1
102
RTVSPost2010Prop33
280
     0
102
RTVSPost2010PropOp33
 70
     1
102
RTVSPost2010Prop34
280
     0
102
RTVSPost2010PropOp34
 70
     1
102
RTVSPost2010Prop35
280
     0
102
RTVSPost2010PropOp35
 70
     1
102
RTVSPost2010Prop36
280
     0
102
RTVSPost2010PropOp36
 70
     1
102
RTVSPost2010Prop37
 90
       50
102
RTVSPost2010PropOp37
 70
     1
102
RTVSPost2010Prop38
140
0.0
102
RTVSPost2010PropOp38
 70
     1
102
RTVSPost2010Prop39
140
1.0
102
RTVSPost2010PropOp39
 70
     1
102
RTVSPost2010Prop40
 90
        0
102
RTVSPost2010PropOp40
 70
     1
102
RTVSPost2010Prop41ColorIndex
 90
       18
102
RTVSPost2010Prop41ColorRGB
 90
        0
102
RTVSPost2010PropOp41
 70
     1
102
RTVSPost2010Prop42
 90
       50
102
RTVSPost2010PropOp42
 70
     1
102
RTVSPost2010Prop43
 90
        3
102
RTVSPost2010PropOp43
 70
     1
102
RTVSPost2010Prop44ColorIndex
 90
        5
102
RTVSPost2010Prop44ColorRGB
 90
      255
102
RTVSPost2010PropOp44
 70
     1
102
RTVSPost2010Prop45
280
     0
102
RTVSPost2010PropOp45
 70
     1
102
RTVSPost2010Prop46
 90
       50
102
RTVSPost2010PropOp46
 70
     1
102
RTVSPost2010Prop47
 90
       50
102
RTVSPost2010PropOp47
 70
     1
102
RTVSPost2010Prop48
 90
       50
102
RTVSPost2010PropOp48
 70
     1
102
RTVSPost2010Prop49
280
     0
102
RTVSPost2010PropOp49
 70
     1
102
RTVSPost2010Prop50
 90
       50
102
RTVSPost2010PropOp50
 70
     1
102
RTVSPost2010Prop51ColorIndex
 90
      256
102
RTVSPost2010Prop51ColorRGB
 90
-16777216
102
RTVSPost2010PropOp51
 70
     0
102
RTVSPost2010Prop52
140
1.0
102
RTVSPost2010PropOp52
 70
     0
102
RTVSPost2010Prop53
 90
        2
102
RTVSPost2010PropOp53
 70
     1
102
RTVSPost2010Prop54
  1
strokes_ogs.tif
102
RTVSPost2010PropOp54
 70
     1
102
RTVSPost2010Prop55
280
     0
102
RTVSPost2010PropOp55
 70
     1
102
RTVSPost2010Prop56
140
1.0
102
RTVSPost2010PropOp56
 70
     1
102
RTVSPost2010Prop57
140
1.0
102
RTVSPost2010PropOp57
 70
     1
  0
XRECORD
  5
58B
102
{ACAD_REACTORS
330
58A
102
}
330
58A
100
AcDbXrecord
280
     1
102
RTVSPost2010Prop28
280
     0
102
RTVSPost2010PropOp28
 70
     1
102
RTVSPost2010Prop29
280
     1
102
RTVSPost2010PropOp29
 70
     1
102
RTVSPost2010Prop30
280
     1
102
RTVSPost2010PropOp30
 70
     1
102
RTVSPost2010Prop31
280
     0
102
RTVSPost2010PropOp31
 70
     1
102
RTVSPost2010Prop32
280
     0
102
RTVSPost2010PropOp32
 70
     1
102
RTVSPost2010Prop33
280
     0
102
RTVSPost2010PropOp33
 70
     1
102
RTVSPost2010Prop34
280
     0
102
RTVSPost2010PropOp34
 70
     1
102
RTVSPost2010Prop35
280
     0
102
RTVSPost2010PropOp35
 70
     1
102
RTVSPost2010Prop36
280
     0
102
RTVSPost2010PropOp36
 70
     1
102
RTVSPost2010Prop37
 90
       50
102
RTVSPost2010PropOp37
 70
     1
102
RTVSPost2010Prop38
140
0.0
102
RTVSPost2010PropOp38
 70
     1
102
RTVSPost2010Prop39
140
1.0
102
RTVSPost2010PropOp39
 70
     1
102
RTVSPost2010Prop40
 90
        0
102
RTVSPost2010PropOp40
 70
     1
102
RTVSPost2010Prop41ColorIndex
 90
       18
102
RTVSPost2010Prop41ColorRGB
 90
        0
102
RTVSPost2010PropOp41
 70
     1
102
RTVSPost2010Prop42
 90
       50
102
RTVSPost2010PropOp42
 70
     1
102
RTVSPost2010Prop43
 90
        3
102
RTVSPost2010PropOp43
 70
     1
102
RTVSPost2010Prop44ColorIndex
 90
        5
102
RTVSPost2010Prop44ColorRGB
 90
      255
102
RTVSPost2010PropOp44
 70
     1
102
RTVSPost2010Prop45
280
     0
102
RTVSPost2010PropOp45
 70
     1
102
RTVSPost2010Prop46
 90
       50
102
RTVSPost2010PropOp46
 70
     1
102
RTVSPost2010Prop47
 90
       50
102
RTVSPost2010PropOp47
 70
     1
102
RTVSPost2010Prop48
 90
       50
102
RTVSPost2010PropOp48
 70
     1
102
RTVSPost2010Prop49
280
     0
102
RTVSPost2010PropOp49
 70
     1
102
RTVSPost2010Prop50
 90
       50
102
RTVSPost2010PropOp50
 70
     1
102
RTVSPost2010Prop51ColorIndex
 90
      256
102
RTVSPost2010Prop51ColorRGB
 90
-16777216
102
RTVSPost2010PropOp51
 70
     0
102
RTVSPost2010Prop52
140
1.0
102
RTVSPost2010PropOp52
 70
     0
102
RTVSPost2010Prop53
 90
        2
102
RTVSPost2010PropOp53
 70
     1
102
RTVSPost2010Prop54
  1
strokes_ogs.tif
102
RTVSPost2010PropOp54
 70
     1
102
RTVSPost2010Prop55
280
     0
102
RTVSPost2010PropOp55
 70
     1
102
RTVSPost2010Prop56
140
1.0
102
RTVSPost2010PropOp56
 70
     1
102
RTVSPost2010Prop57
140
1.0
102
RTVSPost2010PropOp57
 70
     1
  0
XRECORD
  5
593
102
{ACAD_REACTORS
330
592
102
}
330
592
100
AcDbXrecord
280
     1
102
RTVSPost2010Prop28
280
     0
102
RTVSPost2010PropOp28
 70
     1
102
RTVSPost2010Prop29
280
     1
102
RTVSPost2010PropOp29
 70
     1
102
RTVSPost2010Prop30
280
     1
102
RTVSPost2010PropOp30
 70
     1
102
RTVSPost2010Prop31
280
     0
102
RTVSPost2010PropOp31
 70
     1
102
RTVSPost2010Prop32
280
     0
102
RTVSPost2010PropOp32
 70
     1
102
RTVSPost2010Prop33
280
     0
102
RTVSPost2010PropOp33
 70
     1
102
RTVSPost2010Prop34
280
     0
102
RTVSPost2010PropOp34
 70
     1
102
RTVSPost2010Prop35
280
     0
102
RTVSPost2010PropOp35
 70
     1
102
RTVSPost2010Prop36
280
     0
102
RTVSPost2010PropOp36
 70
     1
102
RTVSPost2010Prop37
 90
       50
102
RTVSPost2010PropOp37
 70
     1
102
RTVSPost2010Prop38
140
0.0
102
RTVSPost2010PropOp38
 70
     1
102
RTVSPost2010Prop39
140
1.0
102
RTVSPost2010PropOp39
 70
     1
102
RTVSPost2010Prop40
 90
        0
102
RTVSPost2010PropOp40
 70
     1
102
RTVSPost2010Prop41ColorIndex
 90
       18
102
RTVSPost2010Prop41ColorRGB
 90
        0
102
RTVSPost2010PropOp41
 70
     1
102
RTVSPost2010Prop42
 90
       50
102
RTVSPost2010PropOp42
 70
     1
102
RTVSPost2010Prop43
 90
        3
102
RTVSPost2010PropOp43
 70
     1
102
RTVSPost2010Prop44ColorIndex
 90
        5
102
RTVSPost2010Prop44ColorRGB
 90
      255
102
RTVSPost2010PropOp44
 70
     1
102
RTVSPost2010Prop45
280
     0
102
RTVSPost2010PropOp45
 70
     1
102
RTVSPost2010Prop46
 90
       50
102
RTVSPost2010PropOp46
 70
     1
102
RTVSPost2010Prop47
 90
       50
102
RTVSPost2010PropOp47
 70
     1
102
RTVSPost2010Prop48
 90
       50
102
RTVSPost2010PropOp48
 70
     1
102
RTVSPost2010Prop49
280
     0
102
RTVSPost2010PropOp49
 70
     1
102
RTVSPost2010Prop50
 90
       50
102
RTVSPost2010PropOp50
 70
     1
102
RTVSPost2010Prop51ColorIndex
 90
      256
102
RTVSPost2010Prop51ColorRGB
 90
-16777216
102
RTVSPost2010PropOp51
 70
     0
102
RTVSPost2010Prop52
140
1.0
102
RTVSPost2010PropOp52
 70
     0
102
RTVSPost2010Prop53
 90
        2
102
RTVSPost2010PropOp53
 70
     1
102
RTVSPost2010Prop54
  1
strokes_ogs.tif
102
RTVSPost2010PropOp54
 70
     1
102
RTVSPost2010Prop55
280
     0
102
RTVSPost2010PropOp55
 70
     1
102
RTVSPost2010Prop56
140
1.0
102
RTVSPost2010PropOp56
 70
     1
102
RTVSPost2010Prop57
140
1.0
102
RTVSPost2010PropOp57
 70
     1
  0
XRECORD
  5
581
102
{ACAD_REACTORS
330
580
102
}
330
580
100
AcDbXrecord
280
     1
102
RTVSPost2010Prop28
280
     0
102
RTVSPost2010PropOp28
 70
     1
102
RTVSPost2010Prop29
280
     1
102
RTVSPost2010PropOp29
 70
     1
102
RTVSPost2010Prop30
280
     1
102
RTVSPost2010PropOp30
 70
     1
102
RTVSPost2010Prop31
280
     0
102
RTVSPost2010PropOp31
 70
     1
102
RTVSPost2010Prop32
280
     0
102
RTVSPost2010PropOp32
 70
     1
102
RTVSPost2010Prop33
280
     0
102
RTVSPost2010PropOp33
 70
     1
102
RTVSPost2010Prop34
280
     0
102
RTVSPost2010PropOp34
 70
     1
102
RTVSPost2010Prop35
280
     0
102
RTVSPost2010PropOp35
 70
     1
102
RTVSPost2010Prop36
280
     0
102
RTVSPost2010PropOp36
 70
     1
102
RTVSPost2010Prop37
 90
       50
102
RTVSPost2010PropOp37
 70
     1
102
RTVSPost2010Prop38
140
0.0
102
RTVSPost2010PropOp38
 70
     1
102
RTVSPost2010Prop39
140
1.0
102
RTVSPost2010PropOp39
 70
     1
102
RTVSPost2010Prop40
 90
        0
102
RTVSPost2010PropOp40
 70
     1
102
RTVSPost2010Prop41ColorIndex
 90
       18
102
RTVSPost2010Prop41ColorRGB
 90
        0
102
RTVSPost2010PropOp41
 70
     1
102
RTVSPost2010Prop42
 90
       50
102
RTVSPost2010PropOp42
 70
     1
102
RTVSPost2010Prop43
 90
        3
102
RTVSPost2010PropOp43
 70
     1
102
RTVSPost2010Prop44ColorIndex
 90
        5
102
RTVSPost2010Prop44ColorRGB
 90
      255
102
RTVSPost2010PropOp44
 70
     1
102
RTVSPost2010Prop45
280
     0
102
RTVSPost2010PropOp45
 70
     1
102
RTVSPost2010Prop46
 90
       50
102
RTVSPost2010PropOp46
 70
     1
102
RTVSPost2010Prop47
 90
       50
102
RTVSPost2010PropOp47
 70
     1
102
RTVSPost2010Prop48
 90
       50
102
RTVSPost2010PropOp48
 70
     1
102
RTVSPost2010Prop49
280
     0
102
RTVSPost2010PropOp49
 70
     1
102
RTVSPost2010Prop50
 90
       50
102
RTVSPost2010PropOp50
 70
     1
102
RTVSPost2010Prop51ColorIndex
 90
      256
102
RTVSPost2010Prop51ColorRGB
 90
-16777216
102
RTVSPost2010PropOp51
 70
     0
102
RTVSPost2010Prop52
140
1.0
102
RTVSPost2010PropOp52
 70
     0
102
RTVSPost2010Prop53
 90
        2
102
RTVSPost2010PropOp53
 70
     1
102
RTVSPost2010Prop54
  1
strokes_ogs.tif
102
RTVSPost2010PropOp54
 70
     1
102
RTVSPost2010Prop55
280
     0
102
RTVSPost2010PropOp55
 70
     1
102
RTVSPost2010Prop56
140
1.0
102
RTVSPost2010PropOp56
 70
     1
102
RTVSPost2010Prop57
140
1.0
102
RTVSPost2010PropOp57
 70
     1
  0
XRECORD
  5
59F
102
{ACAD_REACTORS
330
59E
102
}
330
59E
100
AcDbXrecord
280
     1
102
RTVSPost2010Prop28
280
     0
102
RTVSPost2010PropOp28
 70
     1
102
RTVSPost2010Prop29
280
     1
102
RTVSPost2010PropOp29
 70
     1
102
RTVSPost2010Prop30
280
     1
102
RTVSPost2010PropOp30
 70
     1
102
RTVSPost2010Prop31
280
     0
102
RTVSPost2010PropOp31
 70
     1
102
RTVSPost2010Prop32
280
     0
102
RTVSPost2010PropOp32
 70
     1
102
RTVSPost2010Prop33
280
     0
102
RTVSPost2010PropOp33
 70
     1
102
RTVSPost2010Prop34
280
     0
102
RTVSPost2010PropOp34
 70
     1
102
RTVSPost2010Prop35
280
     0
102
RTVSPost2010PropOp35
 70
     1
102
RTVSPost2010Prop36
280
     0
102
RTVSPost2010PropOp36
 70
     1
102
RTVSPost2010Prop37
 90
       50
102
RTVSPost2010PropOp37
 70
     1
102
RTVSPost2010Prop38
140
0.0
102
RTVSPost2010PropOp38
 70
     1
102
RTVSPost2010Prop39
140
1.0
102
RTVSPost2010PropOp39
 70
     1
102
RTVSPost2010Prop40
 90
        0
102
RTVSPost2010PropOp40
 70
     1
102
RTVSPost2010Prop41ColorIndex
 90
       18
102
RTVSPost2010Prop41ColorRGB
 90
        0
102
RTVSPost2010PropOp41
 70
     1
102
RTVSPost2010Prop42
 90
       50
102
RTVSPost2010PropOp42
 70
     1
102
RTVSPost2010Prop43
 90
        3
102
RTVSPost2010PropOp43
 70
     1
102
RTVSPost2010Prop44ColorIndex
 90
        5
102
RTVSPost2010Prop44ColorRGB
 90
      255
102
RTVSPost2010PropOp44
 70
     1
102
RTVSPost2010Prop45
280
     0
102
RTVSPost2010PropOp45
 70
     1
102
RTVSPost2010Prop46
 90
       50
102
RTVSPost2010PropOp46
 70
     1
102
RTVSPost2010Prop47
 90
       50
102
RTVSPost2010PropOp47
 70
     1
102
RTVSPost2010Prop48
 90
       50
102
RTVSPost2010PropOp48
 70
     1
102
RTVSPost2010Prop49
280
     0
102
RTVSPost2010PropOp49
 70
     1
102
RTVSPost2010Prop50
 90
       50
102
RTVSPost2010PropOp50
 70
     1
102
RTVSPost2010Prop51ColorIndex
 90
      256
102
RTVSPost2010Prop51ColorRGB
 90
-16777216
102
RTVSPost2010PropOp51
 70
     0
102
RTVSPost2010Prop52
140
1.0
102
RTVSPost2010PropOp52
 70
     0
102
RTVSPost2010Prop53
 90
        2
102
RTVSPost2010PropOp53
 70
     1
102
RTVSPost2010Prop54
  1
strokes_ogs.tif
102
RTVSPost2010PropOp54
 70
     1
102
RTVSPost2010Prop55
280
     0
102
RTVSPost2010PropOp55
 70
     1
102
RTVSPost2010Prop56
140
1.0
102
RTVSPost2010PropOp56
 70
     1
102
RTVSPost2010Prop57
140
1.0
102
RTVSPost2010PropOp57
 70
     1
  0
XRECORD
  5
5A3
102
{ACAD_REACTORS
330
5A2
102
}
330
5A2
100
AcDbXrecord
280
     1
102
RTVSPost2010Prop28
280
     0
102
RTVSPost2010PropOp28
 70
     1
102
RTVSPost2010Prop29
280
     1
102
RTVSPost2010PropOp29
 70
     1
102
RTVSPost2010Prop30
280
     1
102
RTVSPost2010PropOp30
 70
     1
102
RTVSPost2010Prop31
280
     0
102
RTVSPost2010PropOp31
 70
     1
102
RTVSPost2010Prop32
280
     0
102
RTVSPost2010PropOp32
 70
     1
102
RTVSPost2010Prop33
280
     0
102
RTVSPost2010PropOp33
 70
     1
102
RTVSPost2010Prop34
280
     0
102
RTVSPost2010PropOp34
 70
     1
102
RTVSPost2010Prop35
280
     0
102
RTVSPost2010PropOp35
 70
     1
102
RTVSPost2010Prop36
280
     0
102
RTVSPost2010PropOp36
 70
     1
102
RTVSPost2010Prop37
 90
       50
102
RTVSPost2010PropOp37
 70
     1
102
RTVSPost2010Prop38
140
0.0
102
RTVSPost2010PropOp38
 70
     1
102
RTVSPost2010Prop39
140
1.0
102
RTVSPost2010PropOp39
 70
     1
102
RTVSPost2010Prop40
 90
        0
102
RTVSPost2010PropOp40
 70
     1
102
RTVSPost2010Prop41ColorIndex
 90
       18
102
RTVSPost2010Prop41ColorRGB
 90
        0
102
RTVSPost2010PropOp41
 70
     1
102
RTVSPost2010Prop42
 90
       50
102
RTVSPost2010PropOp42
 70
     1
102
RTVSPost2010Prop43
 90
        3
102
RTVSPost2010PropOp43
 70
     1
102
RTVSPost2010Prop44ColorIndex
 90
        5
102
RTVSPost2010Prop44ColorRGB
 90
      255
102
RTVSPost2010PropOp44
 70
     1
102
RTVSPost2010Prop45
280
     0
102
RTVSPost2010PropOp45
 70
     1
102
RTVSPost2010Prop46
 90
       50
102
RTVSPost2010PropOp46
 70
     1
102
RTVSPost2010Prop47
 90
       50
102
RTVSPost2010PropOp47
 70
     1
102
RTVSPost2010Prop48
 90
       50
102
RTVSPost2010PropOp48
 70
     1
102
RTVSPost2010Prop49
280
     0
102
RTVSPost2010PropOp49
 70
     1
102
RTVSPost2010Prop50
 90
       50
102
RTVSPost2010PropOp50
 70
     1
102
RTVSPost2010Prop51ColorIndex
 90
      256
102
RTVSPost2010Prop51ColorRGB
 90
-16777216
102
RTVSPost2010PropOp51
 70
     0
102
RTVSPost2010Prop52
140
1.0
102
RTVSPost2010PropOp52
 70
     0
102
RTVSPost2010Prop53
 90
        2
102
RTVSPost2010PropOp53
 70
     1
102
RTVSPost2010Prop54
  1
strokes_ogs.tif
102
RTVSPost2010PropOp54
 70
     1
102
RTVSPost2010Prop55
280
     0
102
RTVSPost2010PropOp55
 70
     1
102
RTVSPost2010Prop56
140
1.0
102
RTVSPost2010PropOp56
 70
     1
102
RTVSPost2010Prop57
140
1.0
102
RTVSPost2010PropOp57
 70
     1
  0
XRECORD
  5
59D
102
{ACAD_REACTORS
330
59C
102
}
330
59C
100
AcDbXrecord
280
     1
102
RTVSPost2010Prop28
280
     0
102
RTVSPost2010PropOp28
 70
     1
102
RTVSPost2010Prop29
280
     1
102
RTVSPost2010PropOp29
 70
     1
102
RTVSPost2010Prop30
280
     1
102
RTVSPost2010PropOp30
 70
     1
102
RTVSPost2010Prop31
280
     0
102
RTVSPost2010PropOp31
 70
     1
102
RTVSPost2010Prop32
280
     0
102
RTVSPost2010PropOp32
 70
     1
102
RTVSPost2010Prop33
280
     0
102
RTVSPost2010PropOp33
 70
     1
102
RTVSPost2010Prop34
280
     0
102
RTVSPost2010PropOp34
 70
     1
102
RTVSPost2010Prop35
280
     0
102
RTVSPost2010PropOp35
 70
     1
102
RTVSPost2010Prop36
280
     0
102
RTVSPost2010PropOp36
 70
     1
102
RTVSPost2010Prop37
 90
       50
102
RTVSPost2010PropOp37
 70
     1
102
RTVSPost2010Prop38
140
0.0
102
RTVSPost2010PropOp38
 70
     1
102
RTVSPost2010Prop39
140
1.0
102
RTVSPost2010PropOp39
 70
     1
102
RTVSPost2010Prop40
 90
        0
102
RTVSPost2010PropOp40
 70
     1
102
RTVSPost2010Prop41ColorIndex
 90
       18
102
RTVSPost2010Prop41ColorRGB
 90
        0
102
RTVSPost2010PropOp41
 70
     1
102
RTVSPost2010Prop42
 90
       50
102
RTVSPost2010PropOp42
 70
     1
102
RTVSPost2010Prop43
 90
        3
102
RTVSPost2010PropOp43
 70
     1
102
RTVSPost2010Prop44ColorIndex
 90
        5
102
RTVSPost2010Prop44ColorRGB
 90
      255
102
RTVSPost2010PropOp44
 70
     1
102
RTVSPost2010Prop45
280
     0
102
RTVSPost2010PropOp45
 70
     1
102
RTVSPost2010Prop46
 90
       50
102
RTVSPost2010PropOp46
 70
     1
102
RTVSPost2010Prop47
 90
       50
102
RTVSPost2010PropOp47
 70
     1
102
RTVSPost2010Prop48
 90
       50
102
RTVSPost2010PropOp48
 70
     1
102
RTVSPost2010Prop49
280
     0
102
RTVSPost2010PropOp49
 70
     1
102
RTVSPost2010Prop50
 90
       50
102
RTVSPost2010PropOp50
 70
     1
102
RTVSPost2010Prop51ColorIndex
 90
      256
102
RTVSPost2010Prop51ColorRGB
 90
-16777216
102
RTVSPost2010PropOp51
 70
     0
102
RTVSPost2010Prop52
140
1.0
102
RTVSPost2010PropOp52
 70
     0
102
RTVSPost2010Prop53
 90
        2
102
RTVSPost2010PropOp53
 70
     1
102
RTVSPost2010Prop54
  1
strokes_ogs.tif
102
RTVSPost2010PropOp54
 70
     1
102
RTVSPost2010Prop55
280
     0
102
RTVSPost2010PropOp55
 70
     1
102
RTVSPost2010Prop56
140
1.0
102
RTVSPost2010PropOp56
 70
     1
102
RTVSPost2010Prop57
140
1.0
102
RTVSPost2010PropOp57
 70
     1
  0
XRECORD
  5
5A1
102
{ACAD_REACTORS
330
5A0
102
}
330
5A0
100
AcDbXrecord
280
     1
102
RTVSPost2010Prop28
280
     0
102
RTVSPost2010PropOp28
 70
     1
102
RTVSPost2010Prop29
280
     1
102
RTVSPost2010PropOp29
 70
     1
102
RTVSPost2010Prop30
280
     1
102
RTVSPost2010PropOp30
 70
     1
102
RTVSPost2010Prop31
280
     0
102
RTVSPost2010PropOp31
 70
     1
102
RTVSPost2010Prop32
280
     0
102
RTVSPost2010PropOp32
 70
     1
102
RTVSPost2010Prop33
280
     0
102
RTVSPost2010PropOp33
 70
     1
102
RTVSPost2010Prop34
280
     0
102
RTVSPost2010PropOp34
 70
     1
102
RTVSPost2010Prop35
280
     0
102
RTVSPost2010PropOp35
 70
     1
102
RTVSPost2010Prop36
280
     0
102
RTVSPost2010PropOp36
 70
     1
102
RTVSPost2010Prop37
 90
       50
102
RTVSPost2010PropOp37
 70
     1
102
RTVSPost2010Prop38
140
0.0
102
RTVSPost2010PropOp38
 70
     1
102
RTVSPost2010Prop39
140
1.0
102
RTVSPost2010PropOp39
 70
     1
102
RTVSPost2010Prop40
 90
        0
102
RTVSPost2010PropOp40
 70
     1
102
RTVSPost2010Prop41ColorIndex
 90
       18
102
RTVSPost2010Prop41ColorRGB
 90
        0
102
RTVSPost2010PropOp41
 70
     1
102
RTVSPost2010Prop42
 90
       50
102
RTVSPost2010PropOp42
 70
     1
102
RTVSPost2010Prop43
 90
        3
102
RTVSPost2010PropOp43
 70
     1
102
RTVSPost2010Prop44ColorIndex
 90
        5
102
RTVSPost2010Prop44ColorRGB
 90
      255
102
RTVSPost2010PropOp44
 70
     1
102
RTVSPost2010Prop45
280
     0
102
RTVSPost2010PropOp45
 70
     1
102
RTVSPost2010Prop46
 90
       50
102
RTVSPost2010PropOp46
 70
     1
102
RTVSPost2010Prop47
 90
       50
102
RTVSPost2010PropOp47
 70
     1
102
RTVSPost2010Prop48
 90
       50
102
RTVSPost2010PropOp48
 70
     1
102
RTVSPost2010Prop49
280
     0
102
RTVSPost2010PropOp49
 70
     1
102
RTVSPost2010Prop50
 90
       50
102
RTVSPost2010PropOp50
 70
     1
102
RTVSPost2010Prop51ColorIndex
 90
      256
102
RTVSPost2010Prop51ColorRGB
 90
-16777216
102
RTVSPost2010PropOp51
 70
     0
102
RTVSPost2010Prop52
140
1.0
102
RTVSPost2010PropOp52
 70
     0
102
RTVSPost2010Prop53
 90
        2
102
RTVSPost2010PropOp53
 70
     1
102
RTVSPost2010Prop54
  1
strokes_ogs.tif
102
RTVSPost2010PropOp54
 70
     1
102
RTVSPost2010Prop55
280
     0
102
RTVSPost2010PropOp55
 70
     1
102
RTVSPost2010Prop56
140
1.0
102
RTVSPost2010PropOp56
 70
     1
102
RTVSPost2010Prop57
140
1.0
102
RTVSPost2010PropOp57
 70
     1
  0
XRECORD
  5
597
102
{ACAD_REACTORS
330
596
102
}
330
596
100
AcDbXrecord
280
     1
102
RTVSPost2010Prop28
280
     0
102
RTVSPost2010PropOp28
 70
     1
102
RTVSPost2010Prop29
280
     1
102
RTVSPost2010PropOp29
 70
     1
102
RTVSPost2010Prop30
280
     1
102
RTVSPost2010PropOp30
 70
     1
102
RTVSPost2010Prop31
280
     0
102
RTVSPost2010PropOp31
 70
     1
102
RTVSPost2010Prop32
280
     0
102
RTVSPost2010PropOp32
 70
     1
102
RTVSPost2010Prop33
280
     0
102
RTVSPost2010PropOp33
 70
     1
102
RTVSPost2010Prop34
280
     0
102
RTVSPost2010PropOp34
 70
     1
102
RTVSPost2010Prop35
280
     0
102
RTVSPost2010PropOp35
 70
     1
102
RTVSPost2010Prop36
280
     0
102
RTVSPost2010PropOp36
 70
     1
102
RTVSPost2010Prop37
 90
       50
102
RTVSPost2010PropOp37
 70
     1
102
RTVSPost2010Prop38
140
0.0
102
RTVSPost2010PropOp38
 70
     1
102
RTVSPost2010Prop39
140
1.0
102
RTVSPost2010PropOp39
 70
     1
102
RTVSPost2010Prop40
 90
        0
102
RTVSPost2010PropOp40
 70
     1
102
RTVSPost2010Prop41ColorIndex
 90
       18
102
RTVSPost2010Prop41ColorRGB
 90
        0
102
RTVSPost2010PropOp41
 70
     1
102
RTVSPost2010Prop42
 90
       50
102
RTVSPost2010PropOp42
 70
     1
102
RTVSPost2010Prop43
 90
        3
102
RTVSPost2010PropOp43
 70
     1
102
RTVSPost2010Prop44ColorIndex
 90
        5
102
RTVSPost2010Prop44ColorRGB
 90
      255
102
RTVSPost2010PropOp44
 70
     1
102
RTVSPost2010Prop45
280
     0
102
RTVSPost2010PropOp45
 70
     1
102
RTVSPost2010Prop46
 90
       50
102
RTVSPost2010PropOp46
 70
     1
102
RTVSPost2010Prop47
 90
       50
102
RTVSPost2010PropOp47
 70
     1
102
RTVSPost2010Prop48
 90
       50
102
RTVSPost2010PropOp48
 70
     1
102
RTVSPost2010Prop49
280
     0
102
RTVSPost2010PropOp49
 70
     1
102
RTVSPost2010Prop50
 90
       50
102
RTVSPost2010PropOp50
 70
     1
102
RTVSPost2010Prop51ColorIndex
 90
      256
102
RTVSPost2010Prop51ColorRGB
 90
-16777216
102
RTVSPost2010PropOp51
 70
     0
102
RTVSPost2010Prop52
140
1.0
102
RTVSPost2010PropOp52
 70
     0
102
RTVSPost2010Prop53
 90
        2
102
RTVSPost2010PropOp53
 70
     1
102
RTVSPost2010Prop54
  1
strokes_ogs.tif
102
RTVSPost2010PropOp54
 70
     1
102
RTVSPost2010Prop55
280
     0
102
RTVSPost2010PropOp55
 70
     1
102
RTVSPost2010Prop56
140
1.0
102
RTVSPost2010PropOp56
 70
     1
102
RTVSPost2010Prop57
140
1.0
102
RTVSPost2010PropOp57
 70
     1
  0
XRECORD
  5
599
102
{ACAD_REACTORS
330
598
102
}
330
598
100
AcDbXrecord
280
     1
102
RTVSPost2010Prop28
280
     0
102
RTVSPost2010PropOp28
 70
     1
102
RTVSPost2010Prop29
280
     1
102
RTVSPost2010PropOp29
 70
     1
102
RTVSPost2010Prop30
280
     1
102
RTVSPost2010PropOp30
 70
     1
102
RTVSPost2010Prop31
280
     0
102
RTVSPost2010PropOp31
 70
     1
102
RTVSPost2010Prop32
280
     0
102
RTVSPost2010PropOp32
 70
     1
102
RTVSPost2010Prop33
280
     0
102
RTVSPost2010PropOp33
 70
     1
102
RTVSPost2010Prop34
280
     0
102
RTVSPost2010PropOp34
 70
     1
102
RTVSPost2010Prop35
280
     0
102
RTVSPost2010PropOp35
 70
     1
102
RTVSPost2010Prop36
280
     0
102
RTVSPost2010PropOp36
 70
     1
102
RTVSPost2010Prop37
 90
       50
102
RTVSPost2010PropOp37
 70
     1
102
RTVSPost2010Prop38
140
0.0
102
RTVSPost2010PropOp38
 70
     1
102
RTVSPost2010Prop39
140
1.0
102
RTVSPost2010PropOp39
 70
     1
102
RTVSPost2010Prop40
 90
        0
102
RTVSPost2010PropOp40
 70
     1
102
RTVSPost2010Prop41ColorIndex
 90
       18
102
RTVSPost2010Prop41ColorRGB
 90
        0
102
RTVSPost2010PropOp41
 70
     1
102
RTVSPost2010Prop42
 90
       50
102
RTVSPost2010PropOp42
 70
     1
102
RTVSPost2010Prop43
 90
        3
102
RTVSPost2010PropOp43
 70
     1
102
RTVSPost2010Prop44ColorIndex
 90
        5
102
RTVSPost2010Prop44ColorRGB
 90
      255
102
RTVSPost2010PropOp44
 70
     1
102
RTVSPost2010Prop45
280
     0
102
RTVSPost2010PropOp45
 70
     1
102
RTVSPost2010Prop46
 90
       50
102
RTVSPost2010PropOp46
 70
     1
102
RTVSPost2010Prop47
 90
       50
102
RTVSPost2010PropOp47
 70
     1
102
RTVSPost2010Prop48
 90
       50
102
RTVSPost2010PropOp48
 70
     1
102
RTVSPost2010Prop49
280
     0
102
RTVSPost2010PropOp49
 70
     1
102
RTVSPost2010Prop50
 90
       50
102
RTVSPost2010PropOp50
 70
     1
102
RTVSPost2010Prop51ColorIndex
 90
      256
102
RTVSPost2010Prop51ColorRGB
 90
-16777216
102
RTVSPost2010PropOp51
 70
     0
102
RTVSPost2010Prop52
140
1.0
102
RTVSPost2010PropOp52
 70
     0
102
RTVSPost2010Prop53
 90
        2
102
RTVSPost2010PropOp53
 70
     1
102
RTVSPost2010Prop54
  1
strokes_ogs.tif
102
RTVSPost2010PropOp54
 70
     1
102
RTVSPost2010Prop55
280
     0
102
RTVSPost2010PropOp55
 70
     1
102
RTVSPost2010Prop56
140
1.0
102
RTVSPost2010PropOp56
 70
     1
102
RTVSPost2010Prop57
140
1.0
102
RTVSPost2010PropOp57
 70
     1
  0
XRECORD
  5
589
102
{ACAD_REACTORS
330
588
102
}
330
588
100
AcDbXrecord
280
     1
102
RTVSPost2010Prop28
280
     0
102
RTVSPost2010PropOp28
 70
     1
102
RTVSPost2010Prop29
280
     1
102
RTVSPost2010PropOp29
 70
     1
102
RTVSPost2010Prop30
280
     1
102
RTVSPost2010PropOp30
 70
     1
102
RTVSPost2010Prop31
280
     0
102
RTVSPost2010PropOp31
 70
     1
102
RTVSPost2010Prop32
280
     0
102
RTVSPost2010PropOp32
 70
     1
102
RTVSPost2010Prop33
280
     0
102
RTVSPost2010PropOp33
 70
     1
102
RTVSPost2010Prop34
280
     0
102
RTVSPost2010PropOp34
 70
     1
102
RTVSPost2010Prop35
280
     0
102
RTVSPost2010PropOp35
 70
     1
102
RTVSPost2010Prop36
280
     0
102
RTVSPost2010PropOp36
 70
     1
102
RTVSPost2010Prop37
 90
       50
102
RTVSPost2010PropOp37
 70
     1
102
RTVSPost2010Prop38
140
0.0
102
RTVSPost2010PropOp38
 70
     1
102
RTVSPost2010Prop39
140
1.0
102
RTVSPost2010PropOp39
 70
     1
102
RTVSPost2010Prop40
 90
        0
102
RTVSPost2010PropOp40
 70
     1
102
RTVSPost2010Prop41ColorIndex
 90
       18
102
RTVSPost2010Prop41ColorRGB
 90
        0
102
RTVSPost2010PropOp41
 70
     1
102
RTVSPost2010Prop42
 90
       50
102
RTVSPost2010PropOp42
 70
     1
102
RTVSPost2010Prop43
 90
        3
102
RTVSPost2010PropOp43
 70
     1
102
RTVSPost2010Prop44ColorIndex
 90
        5
102
RTVSPost2010Prop44ColorRGB
 90
      255
102
RTVSPost2010PropOp44
 70
     1
102
RTVSPost2010Prop45
280
     0
102
RTVSPost2010PropOp45
 70
     1
102
RTVSPost2010Prop46
 90
       50
102
RTVSPost2010PropOp46
 70
     1
102
RTVSPost2010Prop47
 90
       50
102
RTVSPost2010PropOp47
 70
     1
102
RTVSPost2010Prop48
 90
       50
102
RTVSPost2010PropOp48
 70
     1
102
RTVSPost2010Prop49
280
     0
102
RTVSPost2010PropOp49
 70
     1
102
RTVSPost2010Prop50
 90
       50
102
RTVSPost2010PropOp50
 70
     1
102
RTVSPost2010Prop51ColorIndex
 90
      256
102
RTVSPost2010Prop51ColorRGB
 90
-16777216
102
RTVSPost2010PropOp51
 70
     0
102
RTVSPost2010Prop52
140
1.0
102
RTVSPost2010PropOp52
 70
     0
102
RTVSPost2010Prop53
 90
        2
102
RTVSPost2010PropOp53
 70
     1
102
RTVSPost2010Prop54
  1
strokes_ogs.tif
102
RTVSPost2010PropOp54
 70
     1
102
RTVSPost2010Prop55
280
     0
102
RTVSPost2010PropOp55
 70
     1
102
RTVSPost2010Prop56
140
1.0
102
RTVSPost2010PropOp56
 70
     1
102
RTVSPost2010Prop57
140
1.0
102
RTVSPost2010PropOp57
 70
     1
  0
XRECORD
  5
57B
102
{ACAD_REACTORS
330
57A
102
}
330
57A
100
AcDbXrecord
280
     1
102
RTVSPost2010Prop28
280
     0
102
RTVSPost2010PropOp28
 70
     1
102
RTVSPost2010Prop29
280
     1
102
RTVSPost2010PropOp29
 70
     1
102
RTVSPost2010Prop30
280
     1
102
RTVSPost2010PropOp30
 70
     1
102
RTVSPost2010Prop31
280
     0
102
RTVSPost2010PropOp31
 70
     1
102
RTVSPost2010Prop32
280
     0
102
RTVSPost2010PropOp32
 70
     1
102
RTVSPost2010Prop33
280
     0
102
RTVSPost2010PropOp33
 70
     1
102
RTVSPost2010Prop34
280
     0
102
RTVSPost2010PropOp34
 70
     1
102
RTVSPost2010Prop35
280
     0
102
RTVSPost2010PropOp35
 70
     1
102
RTVSPost2010Prop36
280
     0
102
RTVSPost2010PropOp36
 70
     1
102
RTVSPost2010Prop37
 90
       50
102
RTVSPost2010PropOp37
 70
     1
102
RTVSPost2010Prop38
140
0.0
102
RTVSPost2010PropOp38
 70
     1
102
RTVSPost2010Prop39
140
1.0
102
RTVSPost2010PropOp39
 70
     1
102
RTVSPost2010Prop40
 90
        0
102
RTVSPost2010PropOp40
 70
     1
102
RTVSPost2010Prop41ColorIndex
 90
       18
102
RTVSPost2010Prop41ColorRGB
 90
        0
102
RTVSPost2010PropOp41
 70
     1
102
RTVSPost2010Prop42
 90
       50
102
RTVSPost2010PropOp42
 70
     1
102
RTVSPost2010Prop43
 90
        3
102
RTVSPost2010PropOp43
 70
     1
102
RTVSPost2010Prop44ColorIndex
 90
        5
102
RTVSPost2010Prop44ColorRGB
 90
      255
102
RTVSPost2010PropOp44
 70
     1
102
RTVSPost2010Prop45
280
     0
102
RTVSPost2010PropOp45
 70
     1
102
RTVSPost2010Prop46
 90
       50
102
RTVSPost2010PropOp46
 70
     1
102
RTVSPost2010Prop47
 90
       50
102
RTVSPost2010PropOp47
 70
     1
102
RTVSPost2010Prop48
 90
       50
102
RTVSPost2010PropOp48
 70
     1
102
RTVSPost2010Prop49
280
     0
102
RTVSPost2010PropOp49
 70
     1
102
RTVSPost2010Prop50
 90
       50
102
RTVSPost2010PropOp50
 70
     1
102
RTVSPost2010Prop51ColorIndex
 90
      256
102
RTVSPost2010Prop51ColorRGB
 90
-16777216
102
RTVSPost2010PropOp51
 70
     0
102
RTVSPost2010Prop52
140
1.0
102
RTVSPost2010PropOp52
 70
     0
102
RTVSPost2010Prop53
 90
        2
102
RTVSPost2010PropOp53
 70
     1
102
RTVSPost2010Prop54
  1
strokes_ogs.tif
102
RTVSPost2010PropOp54
 70
     1
102
RTVSPost2010Prop55
280
     0
102
RTVSPost2010PropOp55
 70
     1
102
RTVSPost2010Prop56
140
1.0
102
RTVSPost2010PropOp56
 70
     1
102
RTVSPost2010Prop57
140
1.0
102
RTVSPost2010PropOp57
 70
     1
  0
XRECORD
  5
59B
102
{ACAD_REACTORS
330
59A
102
}
330
59A
100
AcDbXrecord
280
     1
102
RTVSPost2010Prop28
280
     0
102
RTVSPost2010PropOp28
 70
     1
102
RTVSPost2010Prop29
280
     1
102
RTVSPost2010PropOp29
 70
     1
102
RTVSPost2010Prop30
280
     1
102
RTVSPost2010PropOp30
 70
     1
102
RTVSPost2010Prop31
280
     0
102
RTVSPost2010PropOp31
 70
     1
102
RTVSPost2010Prop32
280
     0
102
RTVSPost2010PropOp32
 70
     1
102
RTVSPost2010Prop33
280
     0
102
RTVSPost2010PropOp33
 70
     1
102
RTVSPost2010Prop34
280
     0
102
RTVSPost2010PropOp34
 70
     1
102
RTVSPost2010Prop35
280
     0
102
RTVSPost2010PropOp35
 70
     1
102
RTVSPost2010Prop36
280
     0
102
RTVSPost2010PropOp36
 70
     1
102
RTVSPost2010Prop37
 90
       50
102
RTVSPost2010PropOp37
 70
     1
102
RTVSPost2010Prop38
140
0.0
102
RTVSPost2010PropOp38
 70
     1
102
RTVSPost2010Prop39
140
1.0
102
RTVSPost2010PropOp39
 70
     1
102
RTVSPost2010Prop40
 90
        0
102
RTVSPost2010PropOp40
 70
     1
102
RTVSPost2010Prop41ColorIndex
 90
       18
102
RTVSPost2010Prop41ColorRGB
 90
        0
102
RTVSPost2010PropOp41
 70
     1
102
RTVSPost2010Prop42
 90
       50
102
RTVSPost2010PropOp42
 70
     1
102
RTVSPost2010Prop43
 90
        3
102
RTVSPost2010PropOp43
 70
     1
102
RTVSPost2010Prop44ColorIndex
 90
        5
102
RTVSPost2010Prop44ColorRGB
 90
      255
102
RTVSPost2010PropOp44
 70
     1
102
RTVSPost2010Prop45
280
     0
102
RTVSPost2010PropOp45
 70
     1
102
RTVSPost2010Prop46
 90
       50
102
RTVSPost2010PropOp46
 70
     1
102
RTVSPost2010Prop47
 90
       50
102
RTVSPost2010PropOp47
 70
     1
102
RTVSPost2010Prop48
 90
       50
102
RTVSPost2010PropOp48
 70
     1
102
RTVSPost2010Prop49
280
     0
102
RTVSPost2010PropOp49
 70
     1
102
RTVSPost2010Prop50
 90
       50
102
RTVSPost2010PropOp50
 70
     1
102
RTVSPost2010Prop51ColorIndex
 90
      256
102
RTVSPost2010Prop51ColorRGB
 90
-16777216
102
RTVSPost2010PropOp51
 70
     0
102
RTVSPost2010Prop52
140
1.0
102
RTVSPost2010PropOp52
 70
     0
102
RTVSPost2010Prop53
 90
        2
102
RTVSPost2010PropOp53
 70
     1
102
RTVSPost2010Prop54
  1
strokes_ogs.tif
102
RTVSPost2010PropOp54
 70
     1
102
RTVSPost2010Prop55
280
     0
102
RTVSPost2010PropOp55
 70
     1
102
RTVSPost2010Prop56
140
1.0
102
RTVSPost2010PropOp56
 70
     1
102
RTVSPost2010Prop57
140
1.0
102
RTVSPost2010PropOp57
 70
     1
  0
ENDSEC
  0
EOF
